<?xml version="1.0" standalone="no"?>
<!DOCTYPE svg PUBLIC "-//W3C//DTD SVG 1.1//EN" "http://www.w3.org/Graphics/SVG/1.1/DTD/svg11.dtd" >
<svg>
<metadata>
Created by FontForge 20120731 at Thu Jun 12 12:29:23 2014
 By World Wide Web Server
Digitized data (c) 1997-2003 Agfa Monotype Corporation. All rights reserved. SegoeTM is a trademark of The Monotype Corporation.
</metadata>
<defs>
<font id="Segoe" horiz-adv-x="1159" >
  <font-face 
    font-family="Segoe"
    font-weight="400"
    font-stretch="normal"
    units-per-em="2048"
    panose-1="2 11 5 2 4 2 0 2 2 3"
    ascent="1638"
    descent="-410"
    x-height="1024"
    cap-height="1434"
    bbox="-311 -578 2398 2130"
    underline-thickness="119"
    underline-position="-178"
    unicode-range="U+000D-F006"
  />
<missing-glyph horiz-adv-x="1024" 
d="M128 0v750h768v-750h-768zM256 128h512v494h-512v-494z" />
    <glyph glyph-name=".notdef" horiz-adv-x="1024" 
d="M128 0v750h768v-750h-768zM256 128h512v494h-512v-494z" />
    <glyph glyph-name=".null" unicode="&#xd;" horiz-adv-x="0" 
d="M0 0z" />
    <glyph glyph-name="nonmarkingreturn" horiz-adv-x="565" 
d="M0 0z" />
    <glyph glyph-name="space" unicode=" " horiz-adv-x="561" 
d="M0 0z" />
    <glyph glyph-name="exclam" unicode="!" horiz-adv-x="582" 
d="M375 1434l-19 -1031h-135l-18 1031h172zM401 92q0 -45 -32.5 -77.5t-77.5 -32.5q-46 0 -78.5 32.5t-32.5 77.5q0 46 32.5 78.5t78.5 32.5q45 0 77.5 -32.5t32.5 -78.5z" />
    <glyph glyph-name="quotedbl" unicode="&#x22;" horiz-adv-x="772" 
d="M596 1434l-10 -447h-117l-8 447h135zM313 1434l-10 -447h-115l-10 447h135z" />
    <glyph glyph-name="numbersign" unicode="#" horiz-adv-x="1210" 
d="M1165 1032l-22 -106h-260l-64 -299h281l-27 -107h-274l-88 -397h-127l86 397h-250l-84 -397h-125l84 397h-262l20 107h264l62 299h-277l21 106h276l84 402h127l-84 -402h252l86 402h123l-84 -402h262zM758 926h-252l-66 -299h254z" />
    <glyph glyph-name="dollar" unicode="$" horiz-adv-x="1104" 
d="M977 371q0 -142 -93 -237q-95 -98 -268 -126v-217h-104v209q-101 0 -207 29q-94 25 -139 57v174q58 -52 162 -87q99 -34 184 -34v512q-182 88 -254 160q-96 98 -96 248q0 142 97.5 248t252.5 129v180h104v-176q195 -6 271 -56v-170q-102 79 -271 86v-528
q177 -85 255 -159q106 -102 106 -242zM512 827v467q-84 -17 -133 -74.5t-49 -140.5q0 -85 40 -140.5t142 -111.5zM809 356q0 138 -193 244v-453q193 42 193 209z" />
    <glyph glyph-name="percent" unicode="%" horiz-adv-x="1675" 
d="M1599 356q0 -171 -94 -275t-248 -104q-147 0 -235 98t-88 261q0 183 99 287q93 98 245 98q150 0 234 -92q87 -96 87 -273zM1468 354q0 126 -56 193q-52 61 -140 61q-94 0 -149 -68q-56 -71 -56 -196q0 -120 54 -187t147 -67q94 0 147 70.5t53 193.5zM1364 1434
l-920 -1444h-143l920 1444h143zM745 1094q0 -172 -94 -275.5t-248 -103.5q-147 0 -235 98t-88 260q0 183 99 286q93 97 245 97q150 0 234 -91q87 -95 87 -271zM614 1090q0 125 -56 193q-53 63 -140 63q-94 0 -149.5 -70t-55.5 -195q0 -120 54.5 -188t146.5 -68
q94 0 147 70.5t53 194.5z" />
    <glyph glyph-name="ampersand" unicode="&#x26;" horiz-adv-x="1446" 
d="M1425 0h-229l-154 158q-194 -183 -469 -183q-222 0 -346 122q-108 107 -108 265q0 253 327 420q-155 198 -155 338q0 146 106 242t271 96q160 0 254 -90q88 -84 88 -209q0 -137 -80 -230q-72 -84 -244 -169q206 -217 375 -383q44 61 76 160q38 115 39 221h151
q-2 -272 -172 -486q41 -40 270 -272zM850 1145q0 79 -53 132q-52 50 -125 50q-103 0 -162 -61q-55 -57 -55 -146q0 -109 141 -266q254 122 254 291zM948 256q-140 142 -409 426q-128 -65 -185 -130q-67 -76 -67 -183q0 -115 81.5 -184.5t204.5 -69.5q221 0 375 141z" />
    <glyph glyph-name="quotesingle" unicode="'" horiz-adv-x="469" 
d="M303 1434l-10 -447h-115l-10 447h135z" />
    <glyph glyph-name="parenleft" unicode="(" horiz-adv-x="618" 
d="M596 -326h-145q-312 354 -312 873q0 520 312 887h147q-313 -380 -313 -885q0 -501 311 -875z" />
    <glyph glyph-name="parenright" unicode=")" horiz-adv-x="618" 
d="M481 547q0 -519 -311 -873h-145q311 374 311 875q0 505 -313 885h147q311 -367 311 -887z" />
    <glyph glyph-name="asterisk" unicode="*" horiz-adv-x="854" 
d="M780 1104l-274 -55l190 -244l-110 -76l-156 264l-158 -264l-110 76l190 244l-276 55l45 125l262 -99l-23 304h138l-23 -304l262 99z" />
    <glyph glyph-name="plus" unicode="+" horiz-adv-x="1401" 
d="M1171 530h-403v-403h-133v403h-404v134h404v403h133v-403h403v-134z" />
    <glyph glyph-name="comma" unicode="," horiz-adv-x="444" 
d="M315 227l-159 -491h-117l117 491h159z" />
    <glyph glyph-name="hyphen" unicode="-" horiz-adv-x="819" 
d="M690 506h-547v129h547v-129z" />
    <glyph glyph-name="period" unicode="." horiz-adv-x="444" 
d="M336 90q0 -46 -33 -79.5t-80 -33.5q-46 0 -78 33.5t-32 79.5q0 47 32 80t78 33q47 0 80 -33.5t33 -79.5z" />
    <glyph glyph-name="slash" unicode="/" horiz-adv-x="799" 
d="M813 1434l-688 -1672h-154l686 1672h156z" />
    <glyph glyph-name="zero" unicode="0" horiz-adv-x="1104" 
d="M1020 723q0 -380 -140 -574q-126 -174 -341 -174q-203 0 -320 164q-133 185 -133 549q0 399 138 595q124 175 345 175q451 0 451 -735zM852 707q0 612 -291 612q-307 0 -307 -623q0 -581 301 -581q297 0 297 592z" />
    <glyph glyph-name="one" unicode="1" horiz-adv-x="1104" 
d="M987 0h-811v143h324v1114l-332 -98v156l496 151v-1323h323v-143z" />
    <glyph glyph-name="two" unicode="2" horiz-adv-x="1104" 
d="M961 0h-865v145l418 420q176 177 238 282q59 99 59 212q0 122 -71 191t-201 69q-193 0 -369 -164v172q60 50 158 87q117 44 233 44q200 0 310 -111q102 -103 102 -272q0 -142 -81 -278q-77 -130 -267 -318l-332 -327v-5h668v-147z" />
    <glyph glyph-name="three" unicode="3" horiz-adv-x="1104" 
d="M961 406q0 -193 -139 -312t-365 -119q-204 0 -326 78v176q146 -114 332 -114q150 0 240 74.5t90 201.5q0 281 -400 281h-119v139h113q354 0 354 264q0 244 -270 244q-151 0 -285 -102v159q138 82 326 82q187 0 296 -101q101 -95 101 -241q0 -283 -286 -364v-4
q150 -15 244 -107.5t94 -234.5z" />
    <glyph glyph-name="four" unicode="4" horiz-adv-x="1104" 
d="M1034 381h-184v-381h-162v381h-674v106l637 947h199v-920h184v-133zM688 514v621q0 64 4 147h-4q-15 -36 -55 -111l-440 -657h495z" />
    <glyph glyph-name="five" unicode="5" horiz-adv-x="1104" 
d="M969 438q0 -198 -125 -324q-138 -139 -383 -139q-199 0 -297 60v174q147 -94 299 -94q156 0 247 87t91 226q0 135 -88 214q-95 85 -279 85q5 0 -225 -12v719h694v-148h-538v-420q65 4 120 4q241 0 369 -127q115 -115 115 -305z" />
    <glyph glyph-name="six" unicode="6" horiz-adv-x="1104" 
d="M1022 455q0 -212 -127.5 -346t-323.5 -134q-210 0 -332 165q-128 174 -128 491q0 386 166 611q160 216 419 216q150 0 238 -41v-155q-111 57 -234 57q-191 0 -305 -170t-114 -455h4q99 203 327 203q187 0 298.5 -121t111.5 -321zM854 434q0 146 -69 232q-73 92 -210 92
q-131 0 -212 -94q-72 -84 -72 -195q0 -137 70 -238q80 -116 217 -116q126 0 203 92q73 88 73 227z" />
    <glyph glyph-name="seven" unicode="7" horiz-adv-x="1104" 
d="M1010 1382l-568 -1382h-170l537 1286h-723v148h924v-52z" />
    <glyph glyph-name="eight" unicode="8" horiz-adv-x="1104" 
d="M1006 365q0 -175 -121 -279q-129 -111 -363 -111q-182 0 -302 104t-120 271q0 276 310 402v4q-258 119 -258 348q0 155 117.5 254.5t303.5 99.5q168 0 276.5 -93t108.5 -239q0 -238 -266 -370v-4q314 -113 314 -387zM791 1106q0 102 -67 159q-62 54 -165 54
q-100 0 -168 -58q-72 -60 -72 -153q0 -187 234 -283q238 98 238 281zM838 352q0 216 -295 322q-275 -109 -275 -316q0 -106 77 -173q80 -70 212 -70q127 0 206 69q75 66 75 168z" />
    <glyph glyph-name="nine" unicode="9" horiz-adv-x="1104" 
d="M1004 803q0 -415 -168 -631q-152 -197 -414 -197q-144 0 -250 50v157q120 -67 254 -67q194 0 303 155.5t109 446.5h-4q-91 -185 -320 -185q-184 0 -302 124t-118 323q0 213 130 346t331 133q195 0 311 -142q138 -169 138 -513zM827 950q0 166 -80 267.5t-206 101.5
q-119 0 -199 -89.5t-80 -228.5q0 -152 79 -237.5t210 -85.5q116 0 196 79t80 193z" />
    <glyph glyph-name="colon" unicode=":" horiz-adv-x="444" 
d="M336 936q0 -46 -33 -79.5t-80 -33.5q-46 0 -78 33t-32 80q0 46 32 78.5t78 32.5q47 0 80 -32.5t33 -78.5zM336 90q0 -46 -33 -79.5t-80 -33.5q-46 0 -78 33.5t-32 79.5q0 47 32 80t78 33q47 0 80 -33.5t33 -79.5z" />
    <glyph glyph-name="semicolon" unicode=";" horiz-adv-x="444" 
d="M338 936q0 -46 -33 -79.5t-80 -33.5q-46 0 -78 33t-32 80q0 46 32 78.5t78 32.5q47 0 80 -32.5t33 -78.5zM315 227l-159 -491h-117l117 491h159z" />
    <glyph glyph-name="less" unicode="&#x3c;" horiz-adv-x="1401" 
d="M1133 127l-861 432v59l861 482v-150l-644 -356v-4l644 -314v-149z" />
    <glyph glyph-name="equal" unicode="=" horiz-adv-x="1401" 
d="M1171 743h-940v134h940v-134zM1171 317h-940v134h940v-134z" />
    <glyph glyph-name="greater" unicode="&#x3e;" horiz-adv-x="1401" 
d="M1133 559l-861 -432v149l643 312v6l-643 356v150l861 -482v-59z" />
    <glyph glyph-name="question" unicode="?" horiz-adv-x="918" 
d="M817 1114q0 -206 -207 -381q-83 -71 -110 -111q-37 -57 -37 -145v-74h-152v78q0 103 42 178q37 67 126 140q176 143 176 301q0 96 -60 156q-63 63 -171 63q-168 0 -293 -133v176q153 96 318 96q172 0 273 -100q95 -95 95 -244zM498 92q0 -45 -32.5 -77.5t-78.5 -32.5
t-78.5 32.5t-32.5 77.5q0 46 32.5 78.5t78.5 32.5t78.5 -32.5t32.5 -78.5z" />
    <glyph glyph-name="at" unicode="@" horiz-adv-x="1956" 
d="M1788 733q0 -252 -125 -408q-115 -143 -279 -143q-219 0 -221 238h-4q-73 -238 -287 -238q-135 0 -218 98q-87 101 -87 275q0 220 110 367q117 157 310 157q73 0 129 -36.5t72 -92.5h4q1 28 10 115h125q-47 -551 -47 -561q0 -207 119 -207q104 0 176 113q76 119 76 307
q0 254 -151 424q-177 198 -507 198q-298 0 -491 -208t-193 -519q0 -302 179 -489q186 -195 503 -195q246 0 422 82v-125q-173 -73 -432 -73q-365 0 -589 222q-220 220 -220 572q0 363 229 603q234 245 600 245q336 0 557 -196q230 -204 230 -525zM1165 750q0 215 -180 215
q-130 0 -207 -129q-69 -116 -69 -283q0 -120 53 -189q51 -65 135 -65q130 0 202 133q66 122 66 318z" />
    <glyph glyph-name="A" unicode="A" horiz-adv-x="1321" 
d="M1298 0h-186l-151 401h-609l-143 -401h-186l548 1434h174zM905 553l-225 610q-9 25 -23 97h-4q-9 -61 -22 -97l-223 -610h497z" />
    <glyph glyph-name="B" unicode="B" horiz-adv-x="1174" 
d="M1071 412q0 -188 -137 -302q-131 -110 -328 -110h-418v1434h408q194 0 303 -98q100 -89 100 -230q0 -121 -65.5 -211t-181.5 -129v-4q146 -17 231 -107q88 -94 88 -243zM823 1073q0 209 -274 209h-193v-463h172q138 0 216.5 66.5t78.5 187.5zM895 414q0 254 -346 254
h-193v-516h228q153 0 235 75q76 69 76 187z" />
    <glyph glyph-name="C" unicode="C" horiz-adv-x="1268" 
d="M1163 59q-158 -84 -395 -84q-308 0 -493 200q-181 196 -181 515q0 351 216 565q205 203 515 203q205 0 338 -59v-178q-153 86 -340 86q-242 0 -394 -159q-159 -166 -159 -448q0 -268 150 -424q142 -149 371 -149q216 0 372 96v-164z" />
    <glyph glyph-name="D" unicode="D" horiz-adv-x="1436" 
d="M1341 735q0 -327 -203 -528q-211 -207 -571 -207h-379v1434h396q757 0 757 -699zM1165 731q0 551 -585 551h-224v-1130h213q284 0 440 151t156 428z" />
    <glyph glyph-name="E" unicode="E" horiz-adv-x="1036" 
d="M948 0h-760v1434h727v-152h-559v-477h518v-152h-518v-501h592v-152z" />
    <glyph glyph-name="F" unicode="F" horiz-adv-x="999" 
d="M915 1282h-559v-496h518v-151h-518v-635h-168v1434h727v-152z" />
    <glyph glyph-name="G" unicode="G" horiz-adv-x="1405" 
d="M1260 98q-216 -123 -480 -123q-304 0 -493 195q-193 199 -193 528q0 335 213 549q209 211 531 211q233 0 393 -76v-186q-174 111 -412 111q-240 0 -393 -165q-156 -167 -156 -431q0 -280 150 -436q142 -148 381 -148q168 0 291 68v401h-314v152h482v-650z" />
    <glyph glyph-name="H" unicode="H" horiz-adv-x="1454" 
d="M1266 0h-168v653h-742v-653h-168v1434h168v-629h742v629h168v-1434z" />
    <glyph glyph-name="I" unicode="I" horiz-adv-x="545" 
d="M356 0h-168v1434h168v-1434z" />
    <glyph glyph-name="J" unicode="J" horiz-adv-x="731" 
d="M555 514q0 -265 -117 -409q-106 -130 -280 -130q-83 0 -138 25v166q53 -39 140 -39q227 0 227 385v922h168v-920z" />
    <glyph glyph-name="K" unicode="K" horiz-adv-x="1188" 
d="M1186 0h-234l-555 655q-22 27 -37 52h-4v-707h-168v1434h168v-674h4q14 21 37 49l537 625h209l-615 -689z" />
    <glyph glyph-name="L" unicode="L" horiz-adv-x="965" 
d="M932 0h-744v1434h168v-1282h576v-152z" />
    <glyph glyph-name="M" unicode="M" horiz-adv-x="1839" 
d="M1651 0h-168v963q0 114 14 278h-4q-24 -96 -43 -139l-489 -1102h-82l-490 1094q-21 46 -43 147h-4q8 -86 8 -280v-961h-162v1434h222l440 -1000q50 -113 65 -172h7q43 118 69 176l449 996h211v-1434z" />
    <glyph glyph-name="N" unicode="N" horiz-adv-x="1532" 
d="M1343 0h-204l-740 1143q-26 41 -45 90h-6q8 -46 8 -197v-1036h-168v1434h218l718 -1125q43 -67 58 -96h4q-10 62 -10 211v1010h167v-1434z" />
    <glyph glyph-name="O" unicode="O" horiz-adv-x="1544" 
d="M1450 735q0 -352 -188 -558q-185 -202 -496 -202q-308 0 -493 206q-179 200 -179 519q0 338 179 543q187 215 518 215q296 0 477.5 -200t181.5 -523zM1274 713q0 287 -136 444q-131 150 -360 150q-225 0 -366.5 -164t-141.5 -428q0 -268 140 -430q136 -158 356 -158
q232 0 367 149q141 155 141 437z" />
    <glyph glyph-name="P" unicode="P" horiz-adv-x="1147" 
d="M1065 1006q0 -195 -129 -323q-142 -140 -391 -140h-189v-543h-168v1434h394q232 0 359 -114q124 -112 124 -314zM889 997q0 285 -336 285h-197v-588h176q174 0 266 81q91 78 91 222z" />
    <glyph glyph-name="Q" unicode="Q" horiz-adv-x="1544" 
d="M1450 735q0 -296 -134 -490t-380 -249l334 -348h-232l-282 327q-299 2 -481 205q-181 200 -181 520q0 334 174 538q188 220 527 220q291 0 473 -200t182 -523zM1274 713q0 287 -136 444q-131 150 -360 150q-225 0 -366.5 -164t-141.5 -428q0 -268 140 -430
q136 -158 356 -158q232 0 367 149q141 155 141 437z" />
    <glyph glyph-name="R" unicode="R" horiz-adv-x="1178" 
d="M1110 0h-201l-188 432q-78 178 -219 178h-146v-610h-168v1434h428q212 0 328 -109q109 -102 109 -272q0 -155 -87.5 -259.5t-232.5 -138.5v-4q80 -28 148 -170zM877 1038q0 114 -75 179t-216 65h-230v-520h222q133 0 216 76.5t83 199.5z" />
    <glyph glyph-name="S" unicode="S" horiz-adv-x="1018" 
d="M920 362q0 -167 -111 -270q-126 -117 -365 -117q-80 0 -178 25t-145 57v199q67 -60 168 -96q94 -33 178 -33q276 0 276 215q0 93 -70 165q-62 63 -231 159q-177 100 -248 192t-71 217q0 165 121 272q127 111 334 111q193 0 282 -51v-188q-113 88 -291 88q-126 0 -200 -64
q-70 -60 -70 -153q0 -100 64 -167q54 -56 215 -145q176 -97 254 -187q88 -101 88 -229z" />
    <glyph glyph-name="T" unicode="T" horiz-adv-x="1073" 
d="M1036 1282h-413v-1282h-168v1282h-414v152h995v-152z" />
    <glyph glyph-name="U" unicode="U" horiz-adv-x="1407" 
d="M1237 580q0 -605 -545 -605q-522 0 -522 582v877h168v-867q0 -440 373 -440q358 0 358 426v881h168v-854z" />
    <glyph glyph-name="V" unicode="V" horiz-adv-x="1272" 
d="M1253 1434l-530 -1434h-184l-521 1434h187l397 -1137q19 -54 29 -127h4q8 61 33 129l405 1135h180z" />
    <glyph glyph-name="W" unicode="W" horiz-adv-x="1913" 
d="M1888 1434l-405 -1434h-197l-295 1049q-19 68 -22 145h-4q-7 -74 -27 -143l-297 -1051h-195l-419 1434h184l305 -1100q19 -68 25 -144h4q4 53 30 144l318 1100h162l303 -1108q16 -61 24 -133h4q4 51 27 137l293 1104h182z" />
    <glyph glyph-name="X" unicode="X" horiz-adv-x="1208" 
d="M1178 0h-205l-330 549q-15 25 -33 72h-4q-10 -24 -35 -72l-340 -549h-204l479 721l-443 713h207l293 -504q30 -52 51 -101h4q32 66 56 105l305 500h192l-450 -711z" />
    <glyph glyph-name="Y" unicode="Y" horiz-adv-x="1133" 
d="M1120 1434l-473 -904v-530h-168v526l-461 908h191l321 -648q14 -33 35 -88h2q11 34 39 88l336 648h178z" />
    <glyph glyph-name="Z" unicode="Z" horiz-adv-x="1167" 
d="M1124 1395l-839 -1243h819v-152h-1071v47l833 1235h-766v152h1024v-39z" />
    <glyph glyph-name="bracketleft" unicode="[" horiz-adv-x="618" 
d="M567 -326h-366v1760h366v-119h-221v-1522h221v-119z" />
    <glyph glyph-name="backslash" unicode="\" horiz-adv-x="776" 
d="M799 -240h-152l-674 1674h156z" />
    <glyph glyph-name="bracketright" unicode="]" horiz-adv-x="618" 
d="M420 -326h-367v119h221v1522h-221v119h367v-1760z" />
    <glyph glyph-name="asciicircum" unicode="^" horiz-adv-x="1401" 
d="M1174 625h-150l-332 618h-6l-309 -618h-148l422 833h66z" />
    <glyph glyph-name="underscore" unicode="_" horiz-adv-x="850" 
d="M850 -297h-850v119h850v-119z" />
    <glyph glyph-name="grave" unicode="`" horiz-adv-x="549" 
d="M471 1219h-127l-262 327h168z" />
    <glyph glyph-name="a" unicode="a" horiz-adv-x="1034" 
d="M891 0h-164v160h-4q-107 -185 -315 -185q-156 0 -243 86q-83 81 -83 211q0 287 338 334l307 43q0 260 -211 260q-185 0 -334 -125v168q47 34 145 64q109 33 203 33q361 0 361 -383v-666zM727 518l-248 -35q-135 -19 -185 -67q-44 -42 -44 -131q0 -74 52.5 -122t143.5 -48
q124 0 202.5 86t78.5 215v102z" />
    <glyph glyph-name="b" unicode="b" horiz-adv-x="1196" 
d="M1108 543q0 -250 -119 -404q-126 -164 -348 -164q-202 0 -307 172h-4v-147h-164v1516h164v-672h4q121 205 354 205q204 0 316 -148q104 -136 104 -358zM940 545q0 170 -79 267t-214 97q-148 0 -237 -106q-80 -98 -80 -242v-143q0 -124 79 -211q84 -92 214 -92
q146 0 230 110q87 114 87 320z" />
    <glyph glyph-name="c" unicode="c" horiz-adv-x="938" 
d="M856 47q-118 -72 -281 -72q-220 0 -355 146q-132 142 -132 366q0 252 144.5 407t388.5 155q134 0 237 -52v-168q-114 80 -244 80q-156 0 -255 -109q-103 -112 -103 -298q0 -179 94.5 -283t253.5 -104q134 0 252 88v-156z" />
    <glyph glyph-name="d" unicode="d" horiz-adv-x="1198" 
d="M1032 0h-164v174h-4q-114 -199 -352 -199q-189 0 -304 134q-120 138 -120 378q0 256 128 409t341 153q210 0 307 -166h4v633h164v-1516zM868 463v151q0 123 -80 207q-83 88 -210 88q-150 0 -236 -109.5t-86 -303.5q0 -185 89 -287q82 -94 214 -94q140 0 227 102
q82 98 82 246z" />
    <glyph glyph-name="e" unicode="e" horiz-adv-x="1055" 
d="M981 471h-723q4 -172 92 -264t242 -92q173 0 317 112v-153q-134 -99 -356 -99q-210 0 -333 132q-132 140 -132 401q0 247 143 399q134 142 328 142q208 0 318 -139q104 -130 104 -353v-86zM813 610q-2 140 -66 218q-67 81 -190 81q-116 0 -197 -82.5t-100 -216.5h553z
" />
    <glyph glyph-name="f" unicode="f" horiz-adv-x="641" 
d="M672 1372q-48 27 -109 27q-172 0 -172 -217v-158h240v-139h-240v-885h-164v885h-174v139h174v166q0 169 105 265q90 83 221 83q76 0 119 -18v-148z" />
    <glyph glyph-name="g" unicode="g" horiz-adv-x="1198" 
d="M1032 82q0 -563 -540 -563q-190 0 -332 71v164q173 -96 329 -96q379 0 379 401v113h-4q-117 -197 -352 -197q-189 0 -305 135q-119 137 -119 369q0 259 124 412q126 158 345 158q207 0 307 -166h4v141h164v-942zM868 463v151q0 120 -80 206q-83 89 -208 89
q-151 0 -236 -107q-88 -110 -88 -313q0 -170 82.5 -272t218.5 -102q138 0 224.5 97.5t86.5 250.5z" />
    <glyph glyph-name="h" unicode="h" 
d="M1016 0h-164v590q0 319 -238 319q-119 0 -200 -89q-84 -93 -84 -240v-580h-164v1516h164v-662h4q119 195 336 195q346 0 346 -418v-631z" />
    <glyph glyph-name="i" unicode="i" horiz-adv-x="496" 
d="M358 1391q0 -45 -31.5 -76t-76.5 -31q-44 0 -75.5 30t-31.5 77q0 45 31.5 75.5t75.5 30.5q45 0 76.5 -30.5t31.5 -75.5zM330 0h-164v1024h164v-1024z" />
    <glyph glyph-name="j" unicode="j" horiz-adv-x="496" 
d="M358 1391q0 -45 -31.5 -76t-76.5 -31q-44 0 -75.5 30t-31.5 77q0 45 31.5 75.5t75.5 30.5q45 0 76.5 -30.5t31.5 -75.5zM330 43q0 -257 -105 -393q-101 -131 -286 -131q-72 0 -138 30v154q75 -45 142 -45q223 0 223 358v1008h164v-981z" />
    <glyph glyph-name="k" unicode="k" horiz-adv-x="1018" 
d="M1016 0h-230l-452 492h-4v-492h-164v1516h164v-961h4l430 469h215l-475 -494z" />
    <glyph glyph-name="l" unicode="l" horiz-adv-x="496" 
d="M330 0h-164v1516h164v-1516z" />
    <glyph glyph-name="m" unicode="m" horiz-adv-x="1763" 
d="M1620 0h-164v588q0 177 -57 252q-53 69 -172 69q-106 0 -179 -95.5t-73 -229.5v-584h-164v608q0 301 -233 301q-107 0 -176 -88q-72 -91 -72 -237v-584h-164v1024h164v-162h4q109 187 317 187q106 0 186 -60q76 -58 105 -153q114 213 340 213q338 0 338 -418v-631z" />
    <glyph glyph-name="n" unicode="n" 
d="M1016 0h-164v584q0 325 -238 325q-123 0 -203.5 -92t-80.5 -233v-584h-164v1024h164v-170h4q115 195 336 195q169 0 257.5 -110t88.5 -312v-627z" />
    <glyph glyph-name="o" unicode="o" horiz-adv-x="1184" 
d="M1096 516q0 -245 -138 -393t-372 -148q-231 0 -366 148q-132 143 -132 377q0 267 150 413q139 136 372 136q229 0 357.5 -142t128.5 -391zM928 510q0 197 -89 300q-86 99 -241 99q-153 0 -245 -100q-97 -107 -97 -303q0 -184 93 -287.5t249 -103.5q162 0 247 105
q83 102 83 290z" />
    <glyph glyph-name="p" unicode="p" horiz-adv-x="1196" 
d="M1108 543q0 -251 -119 -405q-126 -163 -348 -163q-202 0 -307 172h-4v-618h-164v1495h164v-180h4q121 205 354 205q204 0 316 -148q104 -136 104 -358zM940 545q0 170 -79 267t-214 97q-148 0 -237 -106q-80 -98 -80 -242v-143q0 -124 79 -211q84 -92 214 -92
q146 0 230 110q87 114 87 320z" />
    <glyph glyph-name="q" unicode="q" horiz-adv-x="1198" 
d="M1032 -471h-164v647h-4q-107 -201 -350 -201q-189 0 -305 132q-121 138 -121 380q0 258 129 410t342 152q210 0 305 -166h4v141h164v-1495zM868 461v149q0 123 -79 209q-84 90 -214 90q-144 0 -229 -104q-90 -110 -90 -313q0 -191 96 -292q80 -85 201 -85q148 0 236 105
q79 97 79 241z" />
    <glyph glyph-name="r" unicode="r" horiz-adv-x="713" 
d="M700 858q-43 33 -125 33q-100 0 -168 -90q-77 -101 -77 -279v-522h-164v1024h164v-211h4q36 112 111 173q70 56 157 56q65 0 98 -14v-170z" />
    <glyph glyph-name="s" unicode="s" horiz-adv-x="799" 
d="M725 274q0 -126 -94 -209q-103 -90 -281 -90q-146 0 -254 62v176q120 -98 266 -98q195 0 195 143q0 60 -43 99t-168 94q-129 56 -183 116q-65 71 -65 185q0 128 101 212.5t260 84.5q122 0 219 -48v-165q-101 73 -232 73q-82 0 -131 -40t-49 -103q0 -68 41 -106
q37 -35 154 -85q131 -55 189 -113q75 -74 75 -188z" />
    <glyph glyph-name="t" unicode="t" horiz-adv-x="694" 
d="M641 10q-58 -33 -154 -33q-268 0 -268 302v606h-176v139h176v250q78 25 164 53v-303h258v-139h-258v-578q0 -103 35 -146.5t117 -43.5q61 0 106 33v-140z" />
    <glyph glyph-name="u" unicode="u" 
d="M993 0h-164v162h-4q-102 -187 -315 -187q-367 0 -367 437v612h164v-586q0 -323 248 -323q119 0 196.5 86.5t77.5 232.5v590h164v-1024z" />
    <glyph glyph-name="v" unicode="v" horiz-adv-x="981" 
d="M971 1024l-408 -1024h-162l-387 1024h181l260 -743q27 -80 34 -144h5q9 76 32 139l273 748h172z" />
    <glyph glyph-name="w" unicode="w" horiz-adv-x="1481" 
d="M1456 1024l-307 -1024h-170l-211 733q-11 40 -16 94h-4q-3 -35 -21 -92l-229 -735h-164l-309 1024h172l211 -770q10 -40 14 -92h8q3 43 19 94l235 768h150l213 -772q10 -37 14 -92h8q2 39 16 92l209 772h162z" />
    <glyph glyph-name="x" unicode="x" horiz-adv-x="940" 
d="M913 1024l-344 -518l338 -506h-190l-201 332q-16 26 -45 78h-4q-4 -9 -47 -78l-205 -332h-188l348 502l-334 522h190l199 -350q18 -31 43 -80h4q3 5 47 80l209 350h180z" />
    <glyph glyph-name="y" unicode="y" horiz-adv-x="991" 
d="M981 1024l-471 -1188q-126 -317 -354 -317q-64 0 -107 12v147q53 -18 96 -18q125 0 187 147l82 195l-400 1022h183l276 -788q8 -22 21 -78h6q5 24 20 75l291 791h170z" />
    <glyph glyph-name="z" unicode="z" horiz-adv-x="926" 
d="M881 977l-607 -838h600v-139h-841v51l606 834h-549v139h791v-47z" />
    <glyph glyph-name="braceleft" unicode="{" horiz-adv-x="618" 
d="M555 -326q-307 4 -307 310v301q0 202 -156 211v116q156 10 156 215v293q0 310 307 314v-127q-160 -4 -160 -199v-293q0 -210 -149 -258v-4q149 -46 149 -256v-289q0 -112 37.5 -159.5t122.5 -49.5v-125z" />
    <glyph glyph-name="bar" unicode="|" horiz-adv-x="489" 
d="M319 -481h-147v2048h147v-2048z" />
    <glyph glyph-name="braceright" unicode="}" horiz-adv-x="618" 
d="M528 496q-155 -9 -155 -211v-301q0 -306 -307 -310v125q85 2 122 49.5t37 159.5v289q0 210 150 256v4q-150 48 -150 258v293q0 195 -159 199v127q307 -4 307 -314v-293q0 -205 155 -215v-116z" />
    <glyph glyph-name="asciitilde" unicode="~" horiz-adv-x="1401" 
d="M1194 750q-5 -139 -74 -221q-75 -89 -207 -89q-108 0 -264 109q-97 67 -160 67q-139 0 -145 -176h-135q6 140 76 223q74 87 204 87q107 0 236 -88q132 -91 197 -91q61 0 98 49.5t39 129.5h135z" />
    <glyph glyph-name="Adieresis" unicode="&#xc4;" horiz-adv-x="1321" 
d="M1298 0h-186l-151 401h-609l-143 -401h-186l548 1434h174zM905 553l-225 610q-9 25 -23 97h-4q-9 -61 -22 -97l-223 -610h497zM939 1664q0 -41 -28.5 -69.5t-70.5 -28.5q-40 0 -69 28t-29 70t28 70t68 28q42 0 71.5 -28.5t29.5 -69.5zM554 1664q0 -41 -28.5 -69.5
t-70.5 -28.5q-40 0 -70 28t-30 70t29 70t69 28q42 0 71.5 -28.5t29.5 -69.5z" />
    <glyph glyph-name="Aring" unicode="&#xc5;" horiz-adv-x="1321" 
d="M1298 0h-186l-151 401h-609l-143 -401h-186l528 1378q-100 51 -100 164q0 90 60.5 144.5t150.5 54.5q88 0 144 -54t56 -139q0 -112 -96 -166zM770 1548q0 49 -33 80t-82 31t-80.5 -31.5t-31.5 -79.5q0 -114 112 -114q49 0 82 33t33 81zM905 553l-225 610q-9 25 -23 97h-4
q-9 -61 -22 -97l-223 -610h497z" />
    <glyph glyph-name="Ccedilla" unicode="&#xc7;" horiz-adv-x="1268" 
d="M1163 59q-167 -84 -391 -84v-79q86 0 137.5 -40t51.5 -112q0 -176 -275 -176q-39 0 -65 2v90q42 -6 69 -6q141 0 141 90q0 78 -129 78q-2 0 -40 -4v164q-263 34 -416 228q-152 191 -152 480q0 351 216 565q204 203 515 203q205 0 338 -59v-178q-153 86 -340 86
q-242 0 -394 -159q-159 -166 -159 -448q0 -268 150 -424q142 -149 371 -149q216 0 372 96v-164z" />
    <glyph glyph-name="Eacute" unicode="&#xc9;" horiz-adv-x="1036" 
d="M948 0h-760v1434h727v-152h-559v-477h518v-152h-518v-501h592v-152zM803 1891l-262 -327h-127l223 327h166z" />
    <glyph glyph-name="Ntilde" unicode="&#xd1;" horiz-adv-x="1532" 
d="M1343 0h-204l-740 1143q-26 41 -45 90h-6q8 -46 8 -197v-1036h-168v1434h218l718 -1125q43 -67 58 -96h4q-10 62 -10 211v1010h167v-1434zM1113 1803q0 -99 -43 -165q-49 -72 -135 -72q-71 0 -162 51q-77 43 -119 43q-88 0 -88 -113h-94q0 103 44 167q49 69 138 69
q66 0 150 -52q74 -45 127 -45q84 0 84 117h98z" />
    <glyph glyph-name="Odieresis" unicode="&#xd6;" horiz-adv-x="1544" 
d="M1450 735q0 -352 -188 -558q-185 -202 -496 -202q-308 0 -493 206q-179 200 -179 519q0 338 179 543q187 215 518 215q296 0 477.5 -200t181.5 -523zM1274 713q0 287 -136 444q-131 150 -360 150q-225 0 -366.5 -164t-141.5 -428q0 -268 140 -430q136 -158 356 -158
q232 0 367 149q141 155 141 437zM1067 1662q0 -41 -28.5 -69.5t-70.5 -28.5q-40 0 -69 28t-29 70t28 70t68 28q42 0 71.5 -28.5t29.5 -69.5zM682 1662q0 -41 -28.5 -69.5t-70.5 -28.5q-40 0 -70 28t-30 70t29 70t69 28q42 0 71.5 -28.5t29.5 -69.5z" />
    <glyph glyph-name="Udieresis" unicode="&#xdc;" horiz-adv-x="1407" 
d="M1237 580q0 -605 -545 -605q-522 0 -522 582v877h168v-867q0 -440 373 -440q358 0 358 426v881h168v-854zM994 1666q0 -41 -28.5 -69.5t-70.5 -28.5q-40 0 -69 28t-29 70t28 70t68 28q42 0 71.5 -28.5t29.5 -69.5zM609 1666q0 -41 -28.5 -69.5t-70.5 -28.5q-40 0 -70 28
t-30 70t29 70t69 28q42 0 71.5 -28.5t29.5 -69.5z" />
    <glyph glyph-name="aacute" unicode="&#xe1;" horiz-adv-x="1034" 
d="M891 0h-164v160h-4q-107 -185 -315 -185q-156 0 -243 86q-83 81 -83 211q0 287 338 334l307 43q0 260 -211 260q-185 0 -334 -125v168q47 34 145 64q109 33 203 33q361 0 361 -383v-666zM727 518l-248 -35q-135 -19 -185 -67q-44 -42 -44 -131q0 -74 52.5 -122t143.5 -48
q124 0 202.5 86t78.5 215v102zM749 1546l-262 -327h-127l223 327h166z" />
    <glyph glyph-name="agrave" unicode="&#xe0;" horiz-adv-x="1034" 
d="M891 0h-164v160h-4q-107 -185 -315 -185q-156 0 -243 86q-83 81 -83 211q0 287 338 334l307 43q0 260 -211 260q-185 0 -334 -125v168q47 34 145 64q109 33 203 33q361 0 361 -383v-666zM727 518l-248 -35q-135 -19 -185 -67q-44 -42 -44 -131q0 -74 52.5 -122t143.5 -48
q124 0 202.5 86t78.5 215v102zM666 1219h-127l-262 327h168z" />
    <glyph glyph-name="acircumflex" unicode="&#xe2;" horiz-adv-x="1034" 
d="M891 0h-164v160h-4q-107 -185 -315 -185q-156 0 -243 86q-83 81 -83 211q0 287 338 334l307 43q0 260 -211 260q-185 0 -334 -125v168q47 34 145 64q109 33 203 33q361 0 361 -383v-666zM727 518l-248 -35q-135 -19 -185 -67q-44 -42 -44 -131q0 -74 52.5 -122t143.5 -48
q124 0 202.5 86t78.5 215v102zM797 1219h-120l-164 229l-166 -229h-113l215 331h133z" />
    <glyph glyph-name="adieresis" unicode="&#xe4;" horiz-adv-x="1034" 
d="M891 0h-164v160h-4q-107 -185 -315 -185q-156 0 -243 86q-83 81 -83 211q0 287 338 334l307 43q0 260 -211 260q-185 0 -334 -125v168q47 34 145 64q109 33 203 33q361 0 361 -383v-666zM727 518l-248 -35q-135 -19 -185 -67q-44 -42 -44 -131q0 -74 52.5 -122t143.5 -48
q124 0 202.5 86t78.5 215v102zM799 1317q0 -41 -28.5 -69.5t-70.5 -28.5q-40 0 -69 28t-29 70t28 70t68 28q42 0 71.5 -28.5t29.5 -69.5zM414 1317q0 -41 -28.5 -69.5t-70.5 -28.5q-40 0 -70 28t-30 70t29 70t69 28q42 0 71.5 -28.5t29.5 -69.5z" />
    <glyph glyph-name="atilde" unicode="&#xe3;" horiz-adv-x="1034" 
d="M891 0h-164v160h-4q-107 -185 -315 -185q-156 0 -243 86q-83 81 -83 211q0 287 338 334l307 43q0 260 -211 260q-185 0 -334 -125v168q47 34 145 64q109 33 203 33q361 0 361 -383v-666zM727 518l-248 -35q-135 -19 -185 -67q-44 -42 -44 -131q0 -74 52.5 -122t143.5 -48
q124 0 202.5 86t78.5 215v102zM836 1458q0 -99 -43 -165q-49 -72 -135 -72q-71 0 -162 51q-77 43 -119 43q-88 0 -88 -113h-94q0 103 44 167q49 69 138 69q66 0 150 -52q74 -45 127 -45q84 0 84 117h98z" />
    <glyph glyph-name="aring" unicode="&#xe5;" horiz-adv-x="1034" 
d="M891 0h-164v160h-4q-107 -185 -315 -185q-156 0 -243 86q-83 81 -83 211q0 287 338 334l307 43q0 260 -211 260q-185 0 -334 -125v168q47 34 145 64q109 33 203 33q361 0 361 -383v-666zM727 518l-248 -35q-135 -19 -185 -67q-44 -42 -44 -131q0 -74 52.5 -122t143.5 -48
q124 0 202.5 86t78.5 215v102zM718 1372q0 -83 -61.5 -139.5t-147.5 -56.5q-88 0 -145.5 52.5t-57.5 137.5q0 90 61 145q58 54 148 54q89 0 146 -54.5t57 -138.5zM623 1370q0 49 -32.5 81t-81.5 32t-81 -32.5t-32 -80.5q0 -113 113 -113q49 0 81.5 32.5t32.5 80.5z" />
    <glyph glyph-name="ccedilla" unicode="&#xe7;" horiz-adv-x="938" 
d="M856 47q-117 -72 -274 -72v-79q86 0 137 -40t51 -112q0 -176 -274 -176q-39 0 -66 2v90q42 -6 70 -6q141 0 141 90q0 78 -129 78q-1 0 -41 -4v168q-176 33 -279.5 170t-103.5 331q0 252 144.5 407t388.5 155q134 0 237 -52v-168q-114 80 -244 80q-156 0 -255 -109
q-103 -112 -103 -298q0 -179 94.5 -283t253.5 -104q134 0 252 88v-156z" />
    <glyph glyph-name="eacute" unicode="&#xe9;" horiz-adv-x="1055" 
d="M981 471h-723q4 -172 92 -264t242 -92q173 0 317 112v-153q-134 -99 -356 -99q-210 0 -333 132q-132 140 -132 401q0 247 143 399q134 142 328 142q208 0 318 -139q104 -130 104 -353v-86zM813 610q-2 140 -66 218q-67 81 -190 81q-116 0 -197 -82.5t-100 -216.5h553z
M786 1546l-262 -327h-127l223 327h166z" />
    <glyph glyph-name="egrave" unicode="&#xe8;" horiz-adv-x="1055" 
d="M981 471h-723q4 -172 92 -264t242 -92q173 0 317 112v-153q-134 -99 -356 -99q-210 0 -333 132q-132 140 -132 401q0 247 143 399q134 142 328 142q208 0 318 -139q104 -130 104 -353v-86zM813 610q-2 140 -66 218q-67 81 -190 81q-116 0 -197 -82.5t-100 -216.5h553z
M716 1219h-127l-262 327h168z" />
    <glyph glyph-name="ecircumflex" unicode="&#xea;" horiz-adv-x="1055" 
d="M981 471h-723q4 -172 92 -264t242 -92q173 0 317 112v-153q-134 -99 -356 -99q-210 0 -333 132q-132 140 -132 401q0 247 143 399q134 142 328 142q208 0 318 -139q104 -130 104 -353v-86zM813 610q-2 140 -66 218q-67 81 -190 81q-116 0 -197 -82.5t-100 -216.5h553z
M831 1219h-120l-164 229l-166 -229h-113l215 331h133z" />
    <glyph glyph-name="edieresis" unicode="&#xeb;" horiz-adv-x="1055" 
d="M981 471h-723q4 -172 92 -264t242 -92q173 0 317 112v-153q-134 -99 -356 -99q-210 0 -333 132q-132 140 -132 401q0 247 143 399q134 142 328 142q208 0 318 -139q104 -130 104 -353v-86zM813 610q-2 140 -66 218q-67 81 -190 81q-116 0 -197 -82.5t-100 -216.5h553z
M836 1317q0 -41 -28.5 -69.5t-70.5 -28.5q-40 0 -69 28t-29 70t28 70t68 28q42 0 71.5 -28.5t29.5 -69.5zM451 1317q0 -41 -28.5 -69.5t-70.5 -28.5q-40 0 -70 28t-30 70t29 70t69 28q42 0 71.5 -28.5t29.5 -69.5z" />
    <glyph glyph-name="iacute" unicode="&#xed;" horiz-adv-x="496" 
d="M330 0h-164v1024h164v-1024zM488 1546l-262 -327h-127l223 327h166z" />
    <glyph glyph-name="igrave" unicode="&#xec;" horiz-adv-x="496" 
d="M330 0h-164v1024h164v-1024zM380 1219h-127l-262 327h168z" />
    <glyph glyph-name="icircumflex" unicode="&#xee;" horiz-adv-x="496" 
d="M330 0h-164v1024h164v-1024zM529 1219h-120l-164 229l-166 -229h-113l215 331h133z" />
    <glyph glyph-name="idieresis" unicode="&#xef;" horiz-adv-x="496" 
d="M330 0h-164v1024h164v-1024zM539 1317q0 -41 -28.5 -69.5t-70.5 -28.5q-40 0 -69 28t-29 70t28 70t68 28q42 0 71.5 -28.5t29.5 -69.5zM154 1317q0 -41 -28.5 -69.5t-70.5 -28.5q-40 0 -70 28t-30 70t29 70t69 28q42 0 71.5 -28.5t29.5 -69.5z" />
    <glyph glyph-name="ntilde" unicode="&#xf1;" 
d="M1016 0h-164v584q0 325 -238 325q-123 0 -203.5 -92t-80.5 -233v-584h-164v1024h164v-170h4q115 195 336 195q169 0 257.5 -110t88.5 -312v-627zM908 1458q0 -99 -43 -165q-49 -72 -135 -72q-71 0 -162 51q-77 43 -119 43q-88 0 -88 -113h-94q0 103 44 167q49 69 138 69
q66 0 150 -52q74 -45 127 -45q84 0 84 117h98z" />
    <glyph glyph-name="oacute" unicode="&#xf3;" horiz-adv-x="1184" 
d="M1096 516q0 -245 -138 -393t-372 -148q-231 0 -366 148q-132 143 -132 377q0 267 150 413q139 136 372 136q229 0 357.5 -142t128.5 -391zM928 510q0 197 -89 300q-86 99 -241 99q-153 0 -245 -100q-97 -107 -97 -303q0 -184 93 -287.5t249 -103.5q162 0 247 105
q83 102 83 290zM838 1546l-262 -327h-127l223 327h166z" />
    <glyph glyph-name="ograve" unicode="&#xf2;" horiz-adv-x="1184" 
d="M1096 516q0 -245 -138 -393t-372 -148q-231 0 -366 148q-132 143 -132 377q0 267 150 413q139 136 372 136q229 0 357.5 -142t128.5 -391zM928 510q0 197 -89 300q-86 99 -241 99q-153 0 -245 -100q-97 -107 -97 -303q0 -184 93 -287.5t249 -103.5q162 0 247 105
q83 102 83 290zM739 1219h-127l-262 327h168z" />
    <glyph glyph-name="ocircumflex" unicode="&#xf4;" horiz-adv-x="1184" 
d="M1096 516q0 -245 -138 -393t-372 -148q-231 0 -366 148q-132 143 -132 377q0 267 150 413q139 136 372 136q229 0 357.5 -142t128.5 -391zM928 510q0 197 -89 300q-86 99 -241 99q-153 0 -245 -100q-97 -107 -97 -303q0 -184 93 -287.5t249 -103.5q162 0 247 105
q83 102 83 290zM875 1219h-120l-164 229l-166 -229h-113l215 331h133z" />
    <glyph glyph-name="odieresis" unicode="&#xf6;" horiz-adv-x="1184" 
d="M1096 516q0 -245 -138 -393t-372 -148q-231 0 -366 148q-132 143 -132 377q0 267 150 413q139 136 372 136q229 0 357.5 -142t128.5 -391zM928 510q0 197 -89 300q-86 99 -241 99q-153 0 -245 -100q-97 -107 -97 -303q0 -184 93 -287.5t249 -103.5q162 0 247 105
q83 102 83 290zM883 1317q0 -41 -28.5 -69.5t-70.5 -28.5q-40 0 -69 28t-29 70t28 70t68 28q42 0 71.5 -28.5t29.5 -69.5zM498 1317q0 -41 -28.5 -69.5t-70.5 -28.5q-40 0 -70 28t-30 70t29 70t69 28q42 0 71.5 -28.5t29.5 -69.5z" />
    <glyph glyph-name="otilde" unicode="&#xf5;" horiz-adv-x="1184" 
d="M1096 516q0 -245 -138 -393t-372 -148q-231 0 -366 148q-132 143 -132 377q0 267 150 413q139 136 372 136q229 0 357.5 -142t128.5 -391zM928 510q0 197 -89 300q-86 99 -241 99q-153 0 -245 -100q-97 -107 -97 -303q0 -184 93 -287.5t249 -103.5q162 0 247 105
q83 102 83 290zM923 1458q0 -99 -43 -165q-49 -72 -135 -72q-71 0 -162 51q-77 43 -119 43q-88 0 -88 -113h-94q0 103 44 167q49 69 138 69q66 0 150 -52q74 -45 127 -45q84 0 84 117h98z" />
    <glyph glyph-name="uacute" unicode="&#xfa;" 
d="M993 0h-164v162h-4q-102 -187 -315 -187q-367 0 -367 437v612h164v-586q0 -323 248 -323q119 0 196.5 86.5t77.5 232.5v590h164v-1024zM840 1546l-262 -327h-127l223 327h166z" />
    <glyph glyph-name="ugrave" unicode="&#xf9;" 
d="M993 0h-164v162h-4q-102 -187 -315 -187q-367 0 -367 437v612h164v-586q0 -323 248 -323q119 0 196.5 86.5t77.5 232.5v590h164v-1024zM705 1219h-127l-262 327h168z" />
    <glyph glyph-name="ucircumflex" unicode="&#xfb;" 
d="M993 0h-164v162h-4q-102 -187 -315 -187q-367 0 -367 437v612h164v-586q0 -323 248 -323q119 0 196.5 86.5t77.5 232.5v590h164v-1024zM853 1219h-120l-164 229l-166 -229h-113l215 331h133z" />
    <glyph glyph-name="udieresis" unicode="&#xfc;" 
d="M993 0h-164v162h-4q-102 -187 -315 -187q-367 0 -367 437v612h164v-586q0 -323 248 -323q119 0 196.5 86.5t77.5 232.5v590h164v-1024zM869 1317q0 -41 -28.5 -69.5t-70.5 -28.5q-40 0 -69 28t-29 70t28 70t68 28q42 0 71.5 -28.5t29.5 -69.5zM484 1317
q0 -41 -28.5 -69.5t-70.5 -28.5q-40 0 -70 28t-30 70t29 70t69 28q42 0 71.5 -28.5t29.5 -69.5z" />
    <glyph glyph-name="dagger" unicode="&#x2020;" horiz-adv-x="768" 
d="M698 999h-252v-753h-127v753h-251v111h251v320h127v-320h252v-111z" />
    <glyph glyph-name="degree" unicode="&#xb0;" horiz-adv-x="772" 
d="M662 1176q0 -116 -81 -197.5t-196 -81.5t-195.5 81.5t-80.5 197.5q0 115 79.5 194.5t194.5 79.5q116 0 197.5 -79.5t81.5 -194.5zM543 1176q0 65 -46.5 111t-111.5 46t-111.5 -46t-46.5 -111q0 -67 45.5 -114.5t110.5 -47.5t112.5 47.5t47.5 114.5z" />
    <glyph glyph-name="cent" unicode="&#xa2;" horiz-adv-x="1104" 
d="M952 209q-96 -59 -221 -70v-188h-125v190q-193 22 -307.5 162t-114.5 346q0 222 118 371q114 144 304 180v213h125v-203q123 -2 221 -51v-172q-101 71 -221 78v-784q122 12 221 86v-158zM606 291v762q-116 -31 -184 -131q-70 -103 -70 -256q0 -151 68 -249.5t186 -125.5z
" />
    <glyph glyph-name="sterling" unicode="&#xa3;" horiz-adv-x="1104" 
d="M1006 0h-900v135q218 69 218 314v186h-197v141h197v254q0 188 108.5 308t282.5 120q117 0 213 -41v-155q-100 57 -211 57q-230 0 -230 -307v-236h297v-141h-297v-156q0 -242 -192 -340h711v-139z" />
    <glyph glyph-name="section" unicode="&#xa7;" horiz-adv-x="918" 
d="M807 692q0 -170 -150 -276q91 -74 91 -187q0 -131 -100.5 -213t-254.5 -82q-131 0 -239 56v157q131 -73 249 -73q90 0 137 45q40 38 40 94q0 72 -76 127q-17 12 -139 76q-234 122 -234 317q0 163 148 244q-107 83 -107 223q0 122 86 203q94 88 254 88q129 0 219 -43v-158
q-101 62 -223 62q-168 0 -168 -144q0 -68 61 -119q47 -39 183 -104q223 -107 223 -293zM639 674q0 72 -53 122.5t-189 108.5q-100 -51 -100 -160q0 -73 59 -128q55 -52 195 -115q88 68 88 172z" />
    <glyph glyph-name="bullet" unicode="&#x2022;" horiz-adv-x="831" 
d="M668 657q0 -103 -73 -176t-177 -73q-105 0 -179.5 73t-74.5 176q0 104 75 179t179 75q103 0 176.5 -74.5t73.5 -179.5z" />
    <glyph glyph-name="paragraph" unicode="&#xb6;" horiz-adv-x="938" 
d="M834 1331h-127v-1331h-107v1331h-158v-1331h-108v903q-105 0 -177.5 74.5t-72.5 191.5q0 120 79 195q73 70 177 70h494v-103z" />
    <glyph glyph-name="germandbls" unicode="&#xdf;" horiz-adv-x="1114" 
d="M1044 393q0 -167 -100 -285q-113 -133 -305 -133q-100 0 -178 27v160q74 -47 170 -47q108 0 175 70q71 74 71 200q0 150 -100.5 244t-278.5 112v131q117 20 193.5 103.5t76.5 195.5q0 105 -53.5 166.5t-153.5 61.5q-231 0 -231 -309v-1090h-164v1114q0 191 109 307.5
t296 116.5q167 0 266 -95t99 -251q0 -128 -75.5 -229t-194.5 -140v-4q378 -75 378 -426z" />
    <glyph glyph-name="registered" unicode="&#xae;" horiz-adv-x="1823" 
d="M1663 719q0 -315 -217.5 -529.5t-536.5 -214.5q-322 0 -534.5 209t-212.5 529q0 314 216 529.5t537 215.5q315 0 529 -206q219 -211 219 -533zM1573 715q0 283 -192 472t-468 189q-286 0 -474.5 -190.5t-188.5 -470.5q0 -285 195 -476q191 -188 468 -188q274 0 467 190.5
t193 473.5zM1276 248h-162l-104 229q-79 172 -170 172h-88v-401h-134v954h269q178 0 270 -80q78 -69 78 -180q0 -98 -63.5 -167t-178.5 -93v-4q80 -18 158 -176zM1092 926q0 82 -46 119q-52 42 -176 42h-118v-325h143q197 0 197 164z" />
    <glyph glyph-name="copyright" unicode="&#xa9;" horiz-adv-x="1823" 
d="M1663 719q0 -315 -217.5 -529.5t-536.5 -214.5q-322 0 -534.5 209t-212.5 529q0 314 216 529.5t537 215.5q315 0 529 -206q219 -211 219 -533zM1573 715q0 283 -192 472t-468 189q-286 0 -474.5 -190.5t-188.5 -470.5q0 -285 195 -476q191 -188 468 -188q274 0 467 190.5
t193 473.5zM1212 266q-113 -69 -268 -69q-209 0 -350 141t-141 354q0 252 151 401q144 140 369 140q132 0 235 -53v-150q-94 72 -254 72q-148 0 -248 -97q-110 -108 -110 -296q0 -179 109 -285q102 -100 258 -100q146 0 249 77v-135z" />
    <glyph glyph-name="trademark" unicode="&#x2122;" horiz-adv-x="1583" 
d="M1397 772h-109v477h-4l-219 -477h-59l-213 477h-5v-477h-102v662h127l225 -496h4l228 496h127v-662zM602 1335h-209v-563h-110v563h-207v99h526v-99z" />
    <glyph glyph-name="acute" unicode="&#xb4;" horiz-adv-x="578" 
d="M524 1546l-262 -327h-127l223 327h166z" />
    <glyph glyph-name="dieresis" unicode="&#xa8;" horiz-adv-x="848" 
d="M709 1317q0 -41 -28.5 -69.5t-70.5 -28.5q-40 0 -69 28t-29 70t28 70t68 28q42 0 71.5 -28.5t29.5 -69.5zM324 1317q0 -41 -28.5 -69.5t-70.5 -28.5q-40 0 -70 28t-30 70t29 70t69 28q42 0 71.5 -28.5t29.5 -69.5z" />
    <glyph glyph-name="notequal" unicode="&#x2260;" horiz-adv-x="1403" 
d="M1171 317h-548l-164 -317h-142l164 317h-250v134h320l149 292h-469v134h539l158 311h141l-160 -311h262v-134h-329l-152 -292h481v-134z" />
    <glyph glyph-name="AE" unicode="&#xc6;" horiz-adv-x="1761" 
d="M1667 0h-760v401h-510l-192 -401h-195l701 1434h923v-152h-559v-477h518v-152h-518v-501h592v-152zM907 553v729h-94l-346 -729h440z" />
    <glyph glyph-name="Oslash" unicode="&#xd8;" horiz-adv-x="1544" 
d="M1450 735q0 -352 -188 -558q-185 -202 -496 -202q-266 0 -442 156l-152 -182l-78 65l158 191q-158 195 -158 495q0 336 177 541q188 217 520 217q233 0 401 -129l135 162l78 -64l-139 -165q184 -201 184 -527zM1274 713q0 259 -117 417l-725 -866q131 -137 334 -137
q234 0 369 150q139 156 139 436zM1090 1204q-126 103 -312 103q-227 0 -367.5 -164.5t-140.5 -427.5q0 -223 99 -373z" />
    <glyph glyph-name="infinity" unicode="&#x221e;" horiz-adv-x="1673" 
d="M1593 600q0 -160 -105 -275q-108 -118 -267 -118q-227 0 -385 274q-168 -274 -381 -274q-166 0 -269.5 106.5t-103.5 278.5q0 160 106.5 276.5t266.5 116.5q235 0 385 -272q164 272 381 272q165 0 268.5 -106.5t103.5 -278.5zM1460 600q0 111 -67 185.5t-172 74.5
q-174 0 -320 -264q131 -260 320 -260q112 0 177 76q62 72 62 188zM774 598q-131 262 -319 262q-112 0 -179 -78q-63 -74 -63 -190q0 -110 67.5 -183t174.5 -73q175 0 319 262z" />
    <glyph glyph-name="plusminus" unicode="&#xb1;" horiz-adv-x="1401" 
d="M1171 651h-403v-403h-131v403h-406v133h406v404h131v-404h403v-133zM1171 0h-940v133h940v-133z" />
    <glyph glyph-name="lessequal" unicode="&#x2264;" horiz-adv-x="1403" 
d="M1133 254l-861 434v57l861 482v-150l-644 -354v-4l644 -313v-152zM1171 0h-940v133h940v-133z" />
    <glyph glyph-name="greaterequal" unicode="&#x2265;" horiz-adv-x="1403" 
d="M1133 690l-861 -434v152l643 309v6l-643 356v150l861 -481v-58zM1171 0h-940v133h940v-133z" />
    <glyph glyph-name="yen" unicode="&#xa5;" horiz-adv-x="1104" 
d="M1042 1434l-356 -656h285v-139h-334v-207h334v-139h-334v-293h-164v293h-344v139h344v207h-344v139h291l-352 656h192l250 -514q30 -63 47 -111h4q12 42 49 117l252 508h180z" />
    <glyph glyph-name="uni00B5" unicode="&#xb5;" horiz-adv-x="1180" 
d="M1016 0h-164v143h-4q-82 -168 -285 -168q-158 0 -229 119h-4v-485h-164v1415h164v-582q0 -327 243 -327q120 0 197 83q82 90 82 242v584h164v-1024z" />
    <glyph glyph-name="partialdiff" unicode="&#x2202;" horiz-adv-x="1096" 
d="M1028 934q0 -212 -59 -442q-61 -238 -192 -373q-138 -144 -333 -144q-167 0 -266.5 107t-99.5 289q0 261 138 456q151 213 384 213q177 0 262 -168h4q2 26 2 70q0 406 -268 406q-123 0 -246 -80l39 155q119 66 248 66q219 0 313 -167q74 -132 74 -388zM850 692
q-58 209 -229 209q-168 0 -276 -170q-99 -154 -99 -354q0 -120 55.5 -191t155.5 -71q154 0 262 165q104 158 131 412z" />
    <glyph glyph-name="summation" unicode="&#x2211;" horiz-adv-x="1263" 
d="M1210 -469h-1159v78l676 883l-639 851v91h1081v-154h-835l594 -784l-625 -811h907v-154z" />
    <glyph glyph-name="product" unicode="&#x220f;" horiz-adv-x="1544" 
d="M1362 -469h-168v1749h-838v-1749h-168v1903h1174v-1903z" />
    <glyph glyph-name="uniF006" unicode="&#xf006;" horiz-adv-x="1284" 
d="M1198 885h-223v-613q0 -141 104 -141q27 0 86 21v-142q-60 -22 -121 -22q-233 0 -233 276v621h-389v-606q0 -193 -31 -279h-170q37 89 37 279v606q-151 -4 -242 -80v151q98 68 258 68h924v-139z" />
    <glyph glyph-name="integral" unicode="&#x222b;" horiz-adv-x="1105" 
d="M915 1372q-47 27 -110 27q-170 0 -170 -217v-1321q0 -169 -104 -264q-91 -82 -222 -82q-75 0 -119 18v148q48 -27 109 -27q172 0 172 217v1319q0 169 104 265q91 83 222 83q75 0 118 -18v-148z" />
    <glyph glyph-name="ordfeminine" unicode="&#xaa;" horiz-adv-x="803" 
d="M688 717h-129v100h-4q-79 -119 -231 -119q-112 0 -179 62q-63 58 -63 149q0 203 248 236l229 31q0 167 -151 167q-135 0 -254 -86v129q111 70 266 70q126 0 197 -72.5t71 -201.5v-465zM559 1075l-180 -24q-168 -23 -168 -136q0 -50 38.5 -82t102.5 -32q80 0 143.5 60.5
t63.5 146.5v67z" />
    <glyph glyph-name="ordmasculine" unicode="&#xba;" horiz-adv-x="883" 
d="M803 1083q0 -176 -99.5 -281.5t-267.5 -105.5q-171 0 -266 104q-92 100 -92 269q0 186 109 290q101 95 266 95q162 0 256 -98.5t94 -272.5zM670 1075q0 129 -61 200q-60 68 -165 68q-104 0 -166 -68q-65 -72 -65 -202q0 -124 59.5 -194t169.5 -70q106 0 167 72.5
t61 193.5z" />
    <glyph glyph-name="uni2126" unicode="&#x2126;" horiz-adv-x="1546" 
d="M1448 0h-518v147q344 255 344 633q0 257 -151 399q-135 128 -345 128q-213 0 -351 -130q-153 -142 -153 -397q0 -378 344 -633v-147h-518v152h346q-348 235 -348 632q0 320 196 503q183 171 478 171q299 0 482 -168q196 -181 196 -504q0 -398 -348 -634h346v-152z" />
    <glyph glyph-name="ae" unicode="&#xe6;" horiz-adv-x="1688" 
d="M1614 471h-725q3 -173 92 -264.5t240 -91.5q177 0 321 112v-153q-133 -99 -358 -99q-270 0 -383 230h-4q-145 -230 -387 -230q-156 0 -244 85q-84 80 -84 212q0 300 383 324l262 16q0 297 -215 297q-175 0 -330 -121v164q148 97 348 97q231 0 299 -201h5q116 201 356 201
q206 0 318 -138q106 -130 106 -356v-84zM1446 610q-2 141 -67.5 220t-186.5 79q-116 0 -199 -81.5t-102 -217.5h555zM727 410v63l-203 -12q-157 -10 -222 -59q-54 -42 -54 -126q0 -73 53 -117t143 -44q117 0 198 80q85 84 85 215z" />
    <glyph glyph-name="oslash" unicode="&#xf8;" horiz-adv-x="1184" 
d="M1165 1049l-168 -181q99 -138 99 -346q0 -255 -142 -403q-138 -144 -368 -144q-193 0 -318 103l-145 -160l-82 78l149 164q-102 137 -102 340q0 266 151 413q140 136 373 136q185 0 308 -99l161 176zM813 836q-80 73 -215 73q-154 0 -245 -100q-97 -107 -97 -303
q0 -132 49 -223zM930 512q0 134 -47 229l-508 -551q86 -75 221 -75q164 0 250 106q84 103 84 291z" />
    <glyph glyph-name="questiondown" unicode="&#xbf;" horiz-adv-x="918" 
d="M647 936q0 -45 -33.5 -78t-78.5 -33q-46 0 -78.5 32.5t-32.5 78.5t32.5 78.5t78.5 32.5q45 0 78.5 -33t33.5 -78zM786 -334q-155 -98 -315 -98q-172 0 -272 102q-95 96 -95 246q0 211 203 383q94 80 122 128t28 126v74h151v-78q0 -103 -42 -178q-38 -66 -128 -140
q-178 -145 -178 -301q0 -95 63.5 -158t172.5 -63q165 0 290 133v-176z" />
    <glyph glyph-name="exclamdown" unicode="&#xa1;" horiz-adv-x="582" 
d="M401 936q0 -46 -32.5 -78.5t-77.5 -32.5q-46 0 -78.5 32.5t-32.5 78.5t32.5 78.5t78.5 32.5q45 0 77.5 -32.5t32.5 -78.5zM379 -406h-172l18 1031h135z" />
    <glyph glyph-name="logicalnot" unicode="&#xac;" horiz-adv-x="1401" 
d="M1171 254h-131v430h-809v133h940v-563z" />
    <glyph glyph-name="radical" unicode="&#x221a;" horiz-adv-x="1331" 
d="M1114 1516l-389 -1516h-113l-319 750h-170v120h264l275 -661l333 1307h119z" />
    <glyph glyph-name="florin" unicode="&#x192;" horiz-adv-x="1104" 
d="M952 1266q-49 28 -108 28q-147 0 -170 -159l-31 -209h166v-138h-186l-91 -649q-58 -418 -348 -418q-31 0 -90 17v143q36 -20 86 -20q150 0 191 291l90 636h-103v138h123l29 219q17 132 104 210.5t222 78.5q64 0 116 -19v-149z" />
    <glyph glyph-name="approxequal" unicode="&#x2248;" horiz-adv-x="1403" 
d="M1194 961q-5 -139 -74 -221q-75 -89 -207 -89q-108 0 -264 109q-97 67 -160 67q-139 0 -145 -176h-135q6 140 76 222q74 88 204 88q107 0 238 -89q130 -90 195 -90q61 0 98 49.5t39 129.5h135zM1194 549q-5 -139 -74 -221q-75 -88 -207 -88q-108 0 -264 108
q-94 66 -160 66q-139 0 -145 -174h-135q6 140 76 222q74 87 204 87q107 0 238 -89q130 -89 195 -89q61 0 98 49t39 129h135z" />
    <glyph glyph-name="uni2206" unicode="&#x2206;" horiz-adv-x="1320" 
d="M1272 0h-1221v76l520 1358h174l527 -1358v-76zM1057 152l-361 968q-33 89 -39 142h-4q-5 -49 -39 -142l-352 -968h795z" />
    <glyph glyph-name="guillemotleft" unicode="&#xab;" horiz-adv-x="1036" 
d="M946 201h-168l-299 336l299 344h170l-307 -344zM557 201h-166l-299 336l299 344h166l-303 -344z" />
    <glyph glyph-name="guillemotright" unicode="&#xbb;" horiz-adv-x="1036" 
d="M948 539l-301 -338h-166l303 338l-303 342h166zM559 539l-299 -338h-170l307 338l-307 342h170z" />
    <glyph glyph-name="ellipsis" unicode="&#x2026;" horiz-adv-x="1501" 
d="M1362 92q0 -45 -32.5 -77.5t-78.5 -32.5q-45 0 -76.5 32t-31.5 78t31.5 79.5t76.5 33.5q46 0 78.5 -33.5t32.5 -79.5zM860 92q0 -45 -32.5 -77.5t-77.5 -32.5q-46 0 -78.5 32.5t-32.5 77.5q0 46 32.5 79.5t78.5 33.5q45 0 77.5 -33.5t32.5 -79.5zM358 92
q0 -45 -32.5 -77.5t-77.5 -32.5q-46 0 -77.5 32t-31.5 78t32 79.5t77 33.5t77.5 -33.5t32.5 -79.5z" />
    <glyph glyph-name="uni00A0" unicode="&#xa0;" horiz-adv-x="561" 
d="M0 0z" />
    <glyph glyph-name="Agrave" unicode="&#xc0;" horiz-adv-x="1321" 
d="M1298 0h-186l-151 401h-609l-143 -401h-186l548 1434h174zM905 553l-225 610q-9 25 -23 97h-4q-9 -61 -22 -97l-223 -610h497zM758 1567h-127l-262 327h168z" />
    <glyph glyph-name="Atilde" unicode="&#xc3;" horiz-adv-x="1321" 
d="M1298 0h-186l-151 401h-609l-143 -401h-186l548 1434h174zM905 553l-225 610q-9 25 -23 97h-4q-9 -61 -22 -97l-223 -610h497zM977 1803q0 -99 -43 -165q-49 -72 -135 -72q-71 0 -162 51q-77 43 -119 43q-88 0 -88 -113h-94q0 103 44 167q49 69 138 69q66 0 150 -52
q74 -45 127 -45q84 0 84 117h98z" />
    <glyph glyph-name="Otilde" unicode="&#xd5;" horiz-adv-x="1544" 
d="M1450 735q0 -352 -188 -558q-185 -202 -496 -202q-308 0 -493 206q-179 200 -179 519q0 338 179 543q187 215 518 215q296 0 477.5 -200t181.5 -523zM1274 713q0 287 -136 444q-131 150 -360 150q-225 0 -366.5 -164t-141.5 -428q0 -268 140 -430q136 -158 356 -158
q232 0 367 149q141 155 141 437zM1103 1802q0 -99 -43 -165q-49 -72 -135 -72q-71 0 -162 51q-77 43 -119 43q-88 0 -88 -113h-94q0 103 44 167q49 69 138 69q66 0 150 -52q74 -45 127 -45q84 0 84 117h98z" />
    <glyph glyph-name="OE" unicode="&#x152;" horiz-adv-x="1907" 
d="M1810 0h-720q-25 -1 -138 -14q-98 -11 -182 -11q-318 0 -502 211q-174 199 -174 514q0 341 184 546q191 212 521 212q88 0 178 -11q111 -13 113 -13h688v-152h-559v-477h518v-152h-518v-501h591v-152zM1051 160v1118q-161 29 -269 29q-231 0 -374 -172
q-138 -165 -138 -420t136 -419q141 -169 370 -169q116 0 275 33z" />
    <glyph glyph-name="oe" unicode="&#x153;" horiz-adv-x="1884" 
d="M1817 471h-725q3 -171 91 -263.5t242 -92.5q176 0 320 112v-153q-136 -99 -356 -99q-271 0 -383 238h-5q-130 -238 -415 -238q-232 0 -367 148q-131 142 -131 375q0 265 149 412q141 139 375 139q293 0 402 -236h4q119 236 385 236q196 0 307 -135q107 -131 107 -355v-88
zM1649 610q-2 142 -69.5 220.5t-182.5 78.5q-124 0 -208 -89q-79 -82 -95 -210h555zM928 508q0 197 -89 301q-86 100 -241 100q-153 0 -245 -102q-97 -108 -97 -305q0 -183 94 -287q91 -100 246 -100q160 0 246 103t86 290z" />
    <glyph glyph-name="endash" unicode="&#x2013;" horiz-adv-x="1024" 
d="M1024 506h-1024v129h1024v-129z" />
    <glyph glyph-name="emdash" unicode="&#x2014;" horiz-adv-x="2048" 
d="M2048 506h-2048v129h2048v-129z" />
    <glyph glyph-name="quotedblleft" unicode="&#x201c;" horiz-adv-x="772" 
d="M668 1458l-111 -446h-147l141 446h117zM365 1458l-109 -446h-150l140 446h119z" />
    <glyph glyph-name="quotedblright" unicode="&#x201d;" horiz-adv-x="772" 
d="M672 1458l-140 -446h-118l108 446h150zM369 1458l-142 -446h-116l110 446h148z" />
    <glyph glyph-name="quoteleft" unicode="&#x2018;" horiz-adv-x="469" 
d="M365 1458l-109 -446h-150l140 446h119z" />
    <glyph glyph-name="quoteright" unicode="&#x2019;" horiz-adv-x="469" 
d="M369 1458l-142 -446h-116l110 446h148z" />
    <glyph glyph-name="divide" unicode="&#xf7;" horiz-adv-x="1401" 
d="M811 975q0 -47 -30.5 -77t-71.5 -30q-45 0 -75 30.5t-30 74.5q0 45 29 76.5t76 31.5q102 0 102 -106zM1171 530h-940v134h940v-134zM805 217q0 -47 -29.5 -75.5t-70.5 -28.5q-45 0 -76 29.5t-31 72.5q0 46 30 78.5t77 32.5q100 0 100 -109z" />
    <glyph glyph-name="lozenge" unicode="&#x25ca;" horiz-adv-x="1195" 
d="M1087 717l-452 -717h-76l-450 715l450 719h76zM954 717l-356 575l-356 -575l356 -578z" />
    <glyph glyph-name="ydieresis" unicode="&#xff;" horiz-adv-x="991" 
d="M981 1024l-471 -1188q-126 -317 -354 -317q-64 0 -107 12v147q53 -18 96 -18q125 0 187 147l82 195l-400 1022h183l276 -788q8 -22 21 -78h6q5 24 20 75l291 791h170zM788 1317q0 -41 -28.5 -69.5t-70.5 -28.5q-40 0 -69 28t-29 70t28 70t68 28q42 0 71.5 -28.5
t29.5 -69.5zM403 1317q0 -41 -28.5 -69.5t-70.5 -28.5q-40 0 -70 28t-30 70t29 70t69 28q42 0 71.5 -28.5t29.5 -69.5z" />
    <glyph glyph-name="Ydieresis" unicode="&#x178;" horiz-adv-x="1133" 
d="M1120 1434l-473 -904v-530h-168v526l-461 908h191l321 -648q14 -33 35 -88h2q11 34 39 88l336 648h178zM858 1664q0 -41 -28.5 -69.5t-70.5 -28.5q-40 0 -69 28t-29 70t28 70t68 28q42 0 71.5 -28.5t29.5 -69.5zM473 1664q0 -41 -28.5 -69.5t-70.5 -28.5q-40 0 -70 28
t-30 70t29 70t69 28q42 0 71.5 -28.5t29.5 -69.5z" />
    <glyph glyph-name="fraction" unicode="&#x2215;" horiz-adv-x="354" 
d="M690 1434l-858 -1434h-143l858 1434h143z" />
    <glyph glyph-name="Euro" unicode="&#x20ac;" horiz-adv-x="1104" 
d="M1014 51q-137 -76 -281 -76q-425 0 -510 508h-121v140h107q-2 14 -2 35v40q0 51 4 109h-109v139h131q57 248 198.5 380t338.5 132q141 0 244 -55v-164q-121 80 -256 80q-124 0 -221.5 -101t-137.5 -272h496v-139h-518q-4 -46 -4 -107v-40q0 -19 2 -37h520v-140h-504
q73 -368 350 -368q133 0 273 88v-152z" />
    <glyph glyph-name="guilsinglleft" unicode="&#x2039;" horiz-adv-x="647" 
d="M557 201h-166l-299 336l299 344h168l-305 -344z" />
    <glyph glyph-name="guilsinglright" unicode="&#x203a;" horiz-adv-x="647" 
d="M559 539l-301 -338h-166l303 338l-303 342h166z" />
    <glyph glyph-name="uniF001" unicode="&#xf001;" horiz-adv-x="1137" 
d="M1001 1391q0 -45 -31.5 -76t-76.5 -31q-44 0 -75.5 30t-31.5 77q0 45 31.5 75.5t75.5 30.5q45 0 76.5 -30.5t31.5 -75.5zM973 0h-164v1024h164v-1024zM672 1372q-48 27 -109 27q-172 0 -172 -217v-158h240v-139h-240v-885h-164v885h-174v139h174v166q0 169 105 265
q90 83 221 83q76 0 119 -18v-148z" />
    <glyph glyph-name="uniF001" unicode="&#xfb01;" horiz-adv-x="1137" 
d="M1001 1391q0 -45 -31.5 -76t-76.5 -31q-44 0 -75.5 30t-31.5 77q0 45 31.5 75.5t75.5 30.5q45 0 76.5 -30.5t31.5 -75.5zM973 0h-164v1024h164v-1024zM672 1372q-48 27 -109 27q-172 0 -172 -217v-158h240v-139h-240v-885h-164v885h-174v139h174v166q0 169 105 265
q90 83 221 83q76 0 119 -18v-148z" />
    <glyph glyph-name="uniF002" unicode="&#xf002;" horiz-adv-x="1137" 
d="M975 0h-162v1516h162v-1516zM672 1372q-48 27 -109 27q-172 0 -172 -217v-158h240v-139h-240v-885h-164v885h-174v139h174v166q0 169 105 265q90 83 221 83q76 0 119 -18v-148z" />
    <glyph glyph-name="uniF002" unicode="&#xfb02;" horiz-adv-x="1137" 
d="M975 0h-162v1516h162v-1516zM672 1372q-48 27 -109 27q-172 0 -172 -217v-158h240v-139h-240v-885h-164v885h-174v139h174v166q0 169 105 265q90 83 221 83q76 0 119 -18v-148z" />
    <glyph glyph-name="daggerdbl" unicode="&#x2021;" horiz-adv-x="768" 
d="M698 575h-252v-329h-127v329h-251v109h251v315h-251v111h251v320h127v-320h252v-111h-252v-315h252v-109z" />
    <glyph glyph-name="periodcentered" unicode="&#x2219;" horiz-adv-x="444" 
d="M336 623q0 -47 -33 -80t-80 -33q-46 0 -78 33t-32 80q0 46 32 79t78 33q47 0 80 -33t33 -79z" />
    <glyph glyph-name="quotesinglbase" unicode="&#x201a;" horiz-adv-x="469" 
d="M346 217l-141 -444h-117l111 444h147z" />
    <glyph glyph-name="quotedblbase" unicode="&#x201e;" horiz-adv-x="772" 
d="M649 217l-139 -444h-119l109 444h149zM346 217l-141 -444h-117l111 444h147z" />
    <glyph glyph-name="perthousand" unicode="&#x2030;" horiz-adv-x="2478" 
d="M2398 356q0 -171 -94 -275t-248 -104q-147 0 -235 98t-88 261q0 183 99 287q93 98 245 98q150 0 234 -92q87 -96 87 -273zM1599 356q0 -171 -94 -275t-248 -104q-147 0 -235 98t-88 261q0 183 99 287q93 98 245 98q150 0 234 -92q87 -96 87 -273zM1366 1434l-922 -1444
h-143l922 1444h143zM745 1094q0 -172 -94 -275.5t-248 -103.5q-147 0 -235 98t-88 260q0 183 99 286q93 97 245 97q150 0 234 -91q87 -95 87 -271zM2267 354q0 126 -57 193q-52 61 -139 61q-95 0 -149 -68q-56 -71 -56 -196q0 -120 54 -187t146 -67q95 0 148 70.5t53 193.5z
M1468 354q0 126 -56 193q-52 61 -140 61q-94 0 -149 -68q-56 -71 -56 -196q0 -120 54 -187t147 -67q94 0 147 70.5t53 193.5zM614 1090q0 125 -56 193q-53 63 -140 63q-94 0 -149.5 -70t-55.5 -195q0 -120 54.5 -188t146.5 -68q94 0 147 70.5t53 194.5z" />
    <glyph glyph-name="Acircumflex" unicode="&#xc2;" horiz-adv-x="1321" 
d="M1298 0h-186l-151 401h-609l-143 -401h-186l548 1434h174zM905 553l-225 610q-9 25 -23 97h-4q-9 -61 -22 -97l-223 -610h497zM926 1566h-120l-164 229l-166 -229h-113l215 331h133z" />
    <glyph glyph-name="Ecircumflex" unicode="&#xca;" horiz-adv-x="1036" 
d="M948 0h-760v1434h727v-152h-559v-477h518v-152h-518v-501h592v-152zM826 1568h-120l-164 229l-166 -229h-113l215 331h133z" />
    <glyph glyph-name="Aacute" unicode="&#xc1;" horiz-adv-x="1321" 
d="M1298 0h-186l-151 401h-609l-143 -401h-186l548 1434h174zM905 553l-225 610q-9 25 -23 97h-4q-9 -61 -22 -97l-223 -610h497zM867 1894l-262 -327h-127l223 327h166z" />
    <glyph glyph-name="Edieresis" unicode="&#xcb;" horiz-adv-x="1036" 
d="M948 0h-760v1434h727v-152h-559v-477h518v-152h-518v-501h592v-152zM848 1665q0 -41 -28.5 -69.5t-70.5 -28.5q-40 0 -69 28t-29 70t28 70t68 28q42 0 71.5 -28.5t29.5 -69.5zM463 1665q0 -41 -28.5 -69.5t-70.5 -28.5q-40 0 -70 28t-30 70t29 70t69 28q42 0 71.5 -28.5
t29.5 -69.5z" />
    <glyph glyph-name="Egrave" unicode="&#xc8;" horiz-adv-x="1036" 
d="M948 0h-760v1434h727v-152h-559v-477h518v-152h-518v-501h592v-152zM703 1567h-127l-262 327h168z" />
    <glyph glyph-name="Iacute" unicode="&#xcd;" horiz-adv-x="545" 
d="M356 0h-168v1434h168v-1434zM509 1894l-262 -327h-127l223 327h166z" />
    <glyph glyph-name="Icircumflex" unicode="&#xce;" horiz-adv-x="545" 
d="M356 0h-168v1434h168v-1434zM559 1568h-120l-164 229l-166 -229h-113l215 331h133z" />
    <glyph glyph-name="Idieresis" unicode="&#xcf;" horiz-adv-x="545" 
d="M356 0h-168v1434h168v-1434zM569 1665q0 -41 -28.5 -69.5t-70.5 -28.5q-40 0 -69 28t-29 70t28 70t68 28q42 0 71.5 -28.5t29.5 -69.5zM184 1665q0 -41 -28.5 -69.5t-70.5 -28.5q-40 0 -70 28t-30 70t29 70t69 28q42 0 71.5 -28.5t29.5 -69.5z" />
    <glyph glyph-name="Igrave" unicode="&#xcc;" horiz-adv-x="545" 
d="M356 0h-168v1434h168v-1434zM416 1567h-127l-262 327h168z" />
    <glyph glyph-name="Oacute" unicode="&#xd3;" horiz-adv-x="1544" 
d="M1450 735q0 -352 -188 -558q-185 -202 -496 -202q-308 0 -493 206q-179 200 -179 519q0 338 179 543q187 215 518 215q296 0 477.5 -200t181.5 -523zM1274 713q0 287 -136 444q-131 150 -360 150q-225 0 -366.5 -164t-141.5 -428q0 -268 140 -430q136 -158 356 -158
q232 0 367 149q141 155 141 437zM1028 1894l-262 -327h-127l223 327h166z" />
    <glyph glyph-name="Ocircumflex" unicode="&#xd4;" horiz-adv-x="1544" 
d="M1450 735q0 -352 -188 -558q-185 -202 -496 -202q-308 0 -493 206q-179 200 -179 519q0 338 179 543q187 215 518 215q296 0 477.5 -200t181.5 -523zM1274 713q0 287 -136 444q-131 150 -360 150q-225 0 -366.5 -164t-141.5 -428q0 -268 140 -430q136 -158 356 -158
q232 0 367 149q141 155 141 437zM1062 1567h-120l-164 229l-166 -229h-113l215 331h133z" />
    <glyph glyph-name="Ograve" unicode="&#xd2;" horiz-adv-x="1544" 
d="M1450 735q0 -352 -188 -558q-185 -202 -496 -202q-308 0 -493 206q-179 200 -179 519q0 338 179 543q187 215 518 215q296 0 477.5 -200t181.5 -523zM1274 713q0 287 -136 444q-131 150 -360 150q-225 0 -366.5 -164t-141.5 -428q0 -268 140 -430q136 -158 356 -158
q232 0 367 149q141 155 141 437zM880 1567h-127l-262 327h168z" />
    <glyph glyph-name="Uacute" unicode="&#xda;" horiz-adv-x="1407" 
d="M1237 580q0 -605 -545 -605q-522 0 -522 582v877h168v-867q0 -440 373 -440q358 0 358 426v881h168v-854zM960 1893l-262 -327h-127l223 327h166z" />
    <glyph glyph-name="Ucircumflex" unicode="&#xdb;" horiz-adv-x="1407" 
d="M1237 580q0 -605 -545 -605q-522 0 -522 582v877h168v-867q0 -440 373 -440q358 0 358 426v881h168v-854zM986 1568h-120l-164 229l-166 -229h-113l215 331h133z" />
    <glyph glyph-name="Ugrave" unicode="&#xd9;" horiz-adv-x="1407" 
d="M1237 580q0 -605 -545 -605q-522 0 -522 582v877h168v-867q0 -440 373 -440q358 0 358 426v881h168v-854zM830 1567h-127l-262 327h168z" />
    <glyph glyph-name="dotlessi" unicode="&#x131;" horiz-adv-x="496" 
d="M330 0h-164v1024h164v-1024z" />
    <glyph glyph-name="circumflex" unicode="&#x2c6;" horiz-adv-x="760" 
d="M655 1219h-120l-164 229l-166 -229h-113l215 331h133z" />
    <glyph glyph-name="tilde" unicode="&#x2dc;" horiz-adv-x="690" 
d="M676 1458q0 -99 -43 -165q-49 -72 -135 -72q-71 0 -162 51q-77 43 -119 43q-88 0 -88 -113h-94q0 103 44 167q49 69 138 69q66 0 150 -52q74 -45 127 -45q84 0 84 117h98z" />
    <glyph glyph-name="macron" unicode="&#x2c9;" horiz-adv-x="635" 
d="M569 1219h-508v108h508v-108z" />
    <glyph glyph-name="breve" unicode="&#x2d8;" horiz-adv-x="623" 
d="M586 1470q-11 -114 -89.5 -182.5t-189.5 -68.5q-117 0 -191.5 68.5t-78.5 182.5h100q12 -155 172 -155q66 0 115.5 41.5t58.5 113.5h103z" />
    <glyph glyph-name="dotaccent" unicode="&#x2d9;" horiz-adv-x="412" 
d="M305 1317q0 -41 -28.5 -69.5t-69.5 -28.5q-40 0 -69 28t-29 70q0 41 29 68.5t69 27.5q41 0 69.5 -27.5t28.5 -68.5z" />
    <glyph glyph-name="ring" unicode="&#x2da;" horiz-adv-x="573" 
d="M494 1372q0 -83 -61.5 -139.5t-147.5 -56.5q-88 0 -145.5 52.5t-57.5 137.5q0 90 61 145q58 54 148 54q89 0 146 -54.5t57 -138.5zM399 1370q0 49 -32.5 81t-81.5 32t-81 -32.5t-32 -80.5q0 -113 113 -113q49 0 81.5 32.5t32.5 80.5z" />
    <glyph glyph-name="cedilla" unicode="&#xb8;" horiz-adv-x="420" 
d="M391 -256q0 -176 -274 -176q-39 0 -66 2v90q42 -6 70 -6q141 0 141 90q0 78 -129 78q-1 0 -41 -4v182h109v-104q86 0 138 -40.5t52 -111.5z" />
    <glyph glyph-name="hungarumlaut" unicode="&#x2dd;" horiz-adv-x="664" 
d="M647 1536l-246 -317h-96l209 317h133zM399 1536l-239 -317h-97l207 317h129z" />
    <glyph glyph-name="ogonek" unicode="&#x2db;" horiz-adv-x="379" 
d="M338 0q-150 -141 -150 -223q0 -70 68 -70q30 0 55 12v-106q-29 -12 -82 -12q-76 0 -122 39.5t-46 109.5q0 123 158 250h119z" />
    <glyph glyph-name="caron" unicode="&#x2c7;" horiz-adv-x="760" 
d="M664 1548l-213 -329h-134l-215 329h115l164 -229l164 229h119z" />
    <glyph glyph-name="Lslash" unicode="&#x141;" horiz-adv-x="965" 
d="M932 0h-744v547l-155 -96v151l155 96v736h168v-631l328 203v-154l-328 -201v-499h576v-152z" />
    <glyph glyph-name="lslash" unicode="&#x142;" horiz-adv-x="561" 
d="M530 811l-174 -123v-688h-163v578l-170 -119v157l170 119v781h163v-670l174 123v-158z" />
    <glyph glyph-name="Scaron" unicode="&#x160;" horiz-adv-x="1018" 
d="M920 362q0 -167 -111 -270q-126 -117 -365 -117q-80 0 -178 25t-145 57v199q67 -60 168 -96q94 -33 178 -33q276 0 276 215q0 93 -70 165q-62 63 -231 159q-177 100 -248 192t-71 217q0 165 121 272q127 111 334 111q193 0 282 -51v-188q-113 88 -291 88q-126 0 -200 -64
q-70 -60 -70 -153q0 -100 64 -167q54 -56 215 -145q176 -97 254 -187q88 -101 88 -229zM826 1898l-213 -329h-134l-215 329h115l164 -229l164 229h119z" />
    <glyph glyph-name="scaron" unicode="&#x161;" horiz-adv-x="799" 
d="M725 274q0 -126 -94 -209q-103 -90 -281 -90q-146 0 -254 62v176q120 -98 266 -98q195 0 195 143q0 60 -43 99t-168 94q-129 56 -183 116q-65 71 -65 185q0 128 101 212.5t260 84.5q122 0 219 -48v-165q-101 73 -232 73q-82 0 -131 -40t-49 -103q0 -68 41 -106
q37 -35 154 -85q131 -55 189 -113q75 -74 75 -188zM682 1548l-213 -329h-134l-215 329h115l164 -229l164 229h119z" />
    <glyph glyph-name="Zcaron" unicode="&#x17d;" horiz-adv-x="1167" 
d="M1124 1395l-839 -1243h819v-152h-1071v47l833 1235h-766v152h1024v-39zM900 1895l-213 -329h-134l-215 329h115l164 -229l164 229h119z" />
    <glyph glyph-name="zcaron" unicode="&#x17e;" horiz-adv-x="926" 
d="M881 977l-607 -838h600v-139h-841v51l606 834h-549v139h791v-47zM782 1548l-213 -329h-134l-215 329h115l164 -229l164 229h119z" />
    <glyph glyph-name="brokenbar" unicode="&#xa6;" horiz-adv-x="489" 
d="M319 715h-147v852h147v-852zM319 -481h-147v852h147v-852z" />
    <glyph glyph-name="Eth" unicode="&#xd0;" horiz-adv-x="1436" 
d="M1341 735q0 -331 -206 -531q-211 -204 -568 -204h-379v641h-159v156h159v637h396q757 0 757 -699zM1165 731q0 551 -585 551h-224v-485h336v-156h-336v-489h213q283 0 439.5 151t156.5 428z" />
    <glyph glyph-name="eth" unicode="&#xf0;" horiz-adv-x="1128" 
d="M1040 526q0 -232 -120 -383q-131 -166 -361 -166q-229 0 -355 151q-116 139 -116 372q0 237 124 387q132 160 355 160q124 0 211 -78l4 2q-90 162 -198 266l-299 -152l-52 99l271 131q-119 105 -264 201h221q75 -51 172 -136l289 144l55 -94l-264 -130q327 -307 327 -774
zM872 510q0 399 -299 399q-147 0 -232 -108t-85 -295q0 -179 81 -283q83 -108 232 -108q140 0 221.5 108t81.5 287z" />
    <glyph glyph-name="Yacute" unicode="&#xdd;" horiz-adv-x="1133" 
d="M1120 1434l-473 -904v-530h-168v526l-461 908h191l321 -648q14 -33 35 -88h2q11 34 39 88l336 648h178zM831 1894l-262 -327h-127l223 327h166z" />
    <glyph glyph-name="yacute" unicode="&#xfd;" horiz-adv-x="991" 
d="M981 1024l-471 -1188q-126 -317 -354 -317q-64 0 -107 12v147q53 -18 96 -18q125 0 187 147l82 195l-400 1022h183l276 -788q8 -22 21 -78h6q5 24 20 75l291 791h170zM762 1546l-262 -327h-127l223 327h166z" />
    <glyph glyph-name="Thorn" unicode="&#xde;" horiz-adv-x="1147" 
d="M1065 780q0 -197 -132 -325q-143 -138 -390 -138h-187v-317h-168v1434h168v-226h226q238 0 363 -117q120 -112 120 -311zM889 770q0 287 -336 287h-197v-588h176q174 0 265.5 79t91.5 222z" />
    <glyph glyph-name="thorn" unicode="&#xfe;" horiz-adv-x="1196" 
d="M1108 543q0 -251 -119 -405q-126 -163 -348 -163q-202 0 -307 172h-4v-618h-164v1987h164v-672h4q121 205 354 205q204 0 316 -148q104 -136 104 -358zM940 545q0 170 -79 267t-214 97q-148 0 -237 -106q-80 -98 -80 -242v-143q0 -124 79 -211q84 -92 214 -92
q146 0 230 110q87 114 87 320z" />
    <glyph glyph-name="minus" unicode="&#x2212;" horiz-adv-x="1401" 
d="M1171 530h-940v134h940v-134z" />
    <glyph glyph-name="multiply" unicode="&#xd7;" horiz-adv-x="1401" 
d="M1135 258l-95 -94l-340 340l-338 -340l-94 94l340 338l-340 340l94 94l338 -340l340 340l95 -94l-340 -340z" />
    <glyph glyph-name="onesuperior" unicode="&#xb9;" horiz-adv-x="719" 
d="M639 584h-504v112h184v594l-192 -55v125l324 96v-760h188v-112z" />
    <glyph glyph-name="twosuperior" unicode="&#xb2;" horiz-adv-x="750" 
d="M657 584h-553v114l240 236q87 86 118 133q42 63 42 133q0 57 -37.5 94t-99.5 37q-118 0 -217 -102v149q84 76 235 76q119 0 189 -68q67 -66 67 -172q0 -153 -205 -348l-164 -155v-4h385v-123z" />
    <glyph glyph-name="threesuperior" unicode="&#xb3;" horiz-adv-x="750" 
d="M653 827q0 -115 -82 -188q-86 -76 -229 -76q-137 0 -213 53v142q102 -76 217 -76q81 0 128 39q44 38 44 100q0 142 -219 142h-84v116h80q197 0 197 135q0 119 -144 119q-94 0 -186 -69v139q87 51 213 51q118 0 186 -65q62 -59 62 -150q0 -151 -146 -205v-4
q176 -42 176 -203z" />
    <glyph glyph-name="onehalf" unicode="&#xbd;" horiz-adv-x="1907" 
d="M1749 0h-553v115l238 235q87 87 118 133q41 64 41 133q0 58 -36.5 95t-98.5 37q-118 0 -217 -103v150q85 75 234 75q119 0 189 -68q67 -65 67 -171q0 -151 -205 -348l-162 -156v-4h385v-123zM1393 1434l-858 -1434h-142l856 1434h144zM639 584h-504v112h184v594l-192 -55
v125l324 96v-760h188v-112z" />
    <glyph glyph-name="onequarter" unicode="&#xbc;" horiz-adv-x="1855" 
d="M1706 205h-111v-205h-131v205h-393v92l369 553h155v-537h111v-108zM1393 1434l-858 -1434h-142l856 1434h144zM639 584h-504v112h184v594l-192 -55v125l324 96v-760h188v-112zM1468 725h-4q-12 -32 -39 -74l-217 -338h256v324q0 32 4 88z" />
    <glyph glyph-name="threequarters" unicode="&#xbe;" horiz-adv-x="1950" 
d="M1772 205h-111v-205h-131v205h-393v92l368 553h156v-537h111v-108zM1464 1434l-858 -1434h-143l858 1434h143zM653 827q0 -115 -82 -188q-86 -76 -229 -76q-137 0 -213 53v142q102 -76 217 -76q81 0 128 39q44 38 44 100q0 142 -219 142h-84v116h80q197 0 197 135
q0 119 -144 119q-94 0 -186 -69v139q87 51 213 51q118 0 186 -65q62 -59 62 -150q0 -151 -146 -205v-4q176 -42 176 -203zM1534 725h-4q-12 -32 -39 -74l-217 -338h256v324q0 32 4 88z" />
    <glyph glyph-name="uni00AD" unicode="&#xad;" horiz-adv-x="819" 
d="M690 506h-547v129h547v-129z" />
    <glyph glyph-name="uni00AF" unicode="&#xaf;" horiz-adv-x="850" 
d="M850 1612h-850v119h850v-119z" />
    <glyph glyph-name="uni00B7" unicode="&#xb7;" horiz-adv-x="444" 
d="M336 623q0 -47 -33 -80t-80 -33q-46 0 -78 33t-32 80q0 46 32 79t78 33q47 0 80 -33t33 -79z" />
    <glyph glyph-name="uni2044" unicode="&#x2044;" horiz-adv-x="354" 
d="M690 1434l-858 -1434h-143l858 1434h143z" />
    <glyph glyph-name="currency" unicode="&#xa4;" horiz-adv-x="1139" 
d="M1038 354l-92 -96l-137 137q-105 -76 -240 -76t-239 76l-137 -137l-93 96l138 133q-76 114 -76 238q0 129 76 238l-138 135l93 96l137 -137q110 78 239 78q130 0 238 -78l139 137l92 -96l-137 -135q78 -113 78 -238q0 -122 -78 -238zM846 727q0 116 -86 197
q-83 77 -191 77q-115 0 -194.5 -80.5t-79.5 -193.5t80.5 -193.5t193.5 -80.5q114 0 195.5 80.5t81.5 193.5z" />
    <glyph glyph-name="foursuperior" unicode="&#x2074;" horiz-adv-x="719" 
d="M682 788h-111v-204h-131v204h-393v93l369 553h155v-537h111v-109zM444 1309h-4q-12 -32 -39 -74l-217 -338h256v324q0 32 4 88z" />
    <glyph glyph-name="Amacron" unicode="&#x100;" horiz-adv-x="1321" 
d="M1298 0h-186l-151 401h-609l-143 -401h-186l548 1434h174zM905 553l-225 610q-9 25 -23 97h-4q-9 -61 -22 -97l-223 -610h497zM912 1567h-508v108h508v-108z" />
    <glyph glyph-name="amacron" unicode="&#x101;" horiz-adv-x="1034" 
d="M891 0h-164v160h-4q-107 -185 -315 -185q-156 0 -243 86q-83 81 -83 211q0 287 338 334l307 43q0 260 -211 260q-185 0 -334 -125v168q47 34 145 64q109 33 203 33q361 0 361 -383v-666zM727 518l-248 -35q-135 -19 -185 -67q-44 -42 -44 -131q0 -74 52.5 -122t143.5 -48
q124 0 202.5 86t78.5 215v102zM792 1219h-508v108h508v-108z" />
    <glyph glyph-name="Abreve" unicode="&#x102;" horiz-adv-x="1321" 
d="M1298 0h-186l-151 401h-609l-143 -401h-186l548 1434h174zM905 553l-225 610q-9 25 -23 97h-4q-9 -61 -22 -97l-223 -610h497zM932 1819q-11 -114 -89.5 -182.5t-189.5 -68.5q-117 0 -191.5 68.5t-78.5 182.5h100q12 -155 172 -155q66 0 115.5 41.5t58.5 113.5h103z" />
    <glyph glyph-name="abreve" unicode="&#x103;" horiz-adv-x="1034" 
d="M891 0h-164v160h-4q-107 -185 -315 -185q-156 0 -243 86q-83 81 -83 211q0 287 338 334l307 43q0 260 -211 260q-185 0 -334 -125v168q47 34 145 64q109 33 203 33q361 0 361 -383v-666zM727 518l-248 -35q-135 -19 -185 -67q-44 -42 -44 -131q0 -74 52.5 -122t143.5 -48
q124 0 202.5 86t78.5 215v102zM797 1470q-11 -114 -89.5 -182.5t-189.5 -68.5q-117 0 -191.5 68.5t-78.5 182.5h100q12 -155 172 -155q66 0 115.5 41.5t58.5 113.5h103z" />
    <glyph glyph-name="Aogonek" unicode="&#x104;" horiz-adv-x="1321" 
d="M1341 -315q-56 -23 -127 -23q-72 0 -118.5 45.5t-46.5 126.5q0 65 63 166l-151 401h-609l-143 -401h-186l548 1434h174l553 -1434h-63q-59 -101 -59 -166t67 -65q49 0 98 24v-108zM905 553l-225 610q-12 32 -23 97h-4q-10 -64 -22 -97l-223 -610h497z" />
    <glyph glyph-name="aogonek" unicode="&#x105;" horiz-adv-x="1034" 
d="M957 -315q-57 -23 -127 -23q-73 0 -119.5 45.5t-46.5 126.5q0 65 63 166v160h-4q-108 -185 -315 -185q-155 0 -243 86q-83 81 -83 211q0 287 338 334l307 43q0 260 -211 260q-186 0 -334 -125v168q46 34 144 64q110 33 204 33q361 0 361 -383v-666h-41q-59 -101 -59 -166
t67 -65q49 0 99 24v-108zM727 416v102l-248 -35q-135 -19 -185 -67q-44 -42 -44 -131q0 -74 52 -122t144 -48q124 0 202.5 86t78.5 215z" />
    <glyph glyph-name="Cacute" unicode="&#x106;" horiz-adv-x="1268" 
d="M1163 59q-158 -84 -395 -84q-308 0 -493 200q-181 196 -181 515q0 351 216 565q205 203 515 203q205 0 338 -59v-178q-153 86 -340 86q-242 0 -394 -159q-159 -166 -159 -448q0 -268 150 -424q142 -149 371 -149q216 0 372 96v-164zM993 1894l-262 -327h-127l223 327h166
z" />
    <glyph glyph-name="cacute" unicode="&#x107;" horiz-adv-x="938" 
d="M856 47q-118 -72 -281 -72q-220 0 -355 146q-132 142 -132 366q0 252 144.5 407t388.5 155q134 0 237 -52v-168q-114 80 -244 80q-156 0 -255 -109q-103 -112 -103 -298q0 -179 94.5 -283t253.5 -104q134 0 252 88v-156zM807 1546l-262 -327h-127l223 327h166z" />
    <glyph glyph-name="Ccircumflex" unicode="&#x108;" horiz-adv-x="1268" 
d="M1163 59q-158 -84 -395 -84q-308 0 -493 200q-181 196 -181 515q0 351 216 565q205 203 515 203q205 0 338 -59v-178q-153 86 -340 86q-242 0 -394 -159q-159 -166 -159 -448q0 -268 150 -424q142 -149 371 -149q216 0 372 96v-164zM1047 1568h-120l-164 229l-166 -229
h-113l215 331h133z" />
    <glyph glyph-name="ccircumflex" unicode="&#x109;" horiz-adv-x="938" 
d="M856 47q-118 -72 -281 -72q-220 0 -355 146q-132 142 -132 366q0 252 144.5 407t388.5 155q134 0 237 -52v-168q-114 80 -244 80q-156 0 -255 -109q-103 -112 -103 -298q0 -179 94.5 -283t253.5 -104q134 0 252 88v-156zM831 1219h-120l-164 229l-166 -229h-113l215 331
h133z" />
    <glyph glyph-name="Cdotaccent" unicode="&#x10a;" horiz-adv-x="1268" 
d="M1163 59q-158 -84 -395 -84q-308 0 -493 200q-181 196 -181 515q0 351 216 565q205 203 515 203q205 0 338 -59v-178q-153 86 -340 86q-242 0 -394 -159q-159 -166 -159 -448q0 -268 150 -424q142 -149 371 -149q216 0 372 96v-164zM865 1665q0 -41 -28.5 -69.5
t-69.5 -28.5q-40 0 -69 28t-29 70q0 41 29 68.5t69 27.5q41 0 69.5 -27.5t28.5 -68.5z" />
    <glyph glyph-name="cdotaccent" unicode="&#x10b;" horiz-adv-x="938" 
d="M856 47q-118 -72 -281 -72q-220 0 -355 146q-132 142 -132 366q0 252 144.5 407t388.5 155q134 0 237 -52v-168q-114 80 -244 80q-156 0 -255 -109q-103 -112 -103 -298q0 -179 94.5 -283t253.5 -104q134 0 252 88v-156zM683 1317q0 -41 -28.5 -69.5t-69.5 -28.5
q-40 0 -69 28t-29 70q0 41 29 68.5t69 27.5q41 0 69.5 -27.5t28.5 -68.5z" />
    <glyph glyph-name="Ccaron" unicode="&#x10c;" horiz-adv-x="1268" 
d="M1163 59q-158 -84 -395 -84q-308 0 -493 200q-181 196 -181 515q0 351 216 565q205 203 515 203q205 0 338 -59v-178q-153 86 -340 86q-242 0 -394 -159q-159 -166 -159 -448q0 -268 150 -424q142 -149 371 -149q216 0 372 96v-164zM1054 1896l-213 -329h-134l-215 329
h115l164 -229l164 229h119z" />
    <glyph glyph-name="ccaron" unicode="&#x10d;" horiz-adv-x="938" 
d="M856 47q-118 -72 -281 -72q-220 0 -355 146q-132 142 -132 366q0 252 144.5 407t388.5 155q134 0 237 -52v-168q-114 80 -244 80q-156 0 -255 -109q-103 -112 -103 -298q0 -179 94.5 -283t253.5 -104q134 0 252 88v-156zM850 1548l-213 -329h-134l-215 329h115l164 -229
l164 229h119z" />
    <glyph glyph-name="Dcaron" unicode="&#x10e;" horiz-adv-x="1436" 
d="M1341 735q0 -327 -203 -528q-211 -207 -571 -207h-379v1434h396q757 0 757 -699zM1165 731q0 551 -585 551h-224v-1130h213q284 0 440 151t156 428zM962 1896l-213 -329h-134l-215 329h115l164 -229l164 229h119z" />
    <glyph glyph-name="dcaron" unicode="&#x10f;" horiz-adv-x="1348" 
d="M1032 0h-164v174h-4q-114 -199 -352 -199q-189 0 -304 134q-120 138 -120 378q0 256 128 409t341 153q208 0 307 -166h4v633h164v-1516zM868 463v151q0 123 -80 208q-83 87 -210 87q-150 0 -236 -109.5t-86 -303.5q0 -185 89 -287q81 -94 214 -94q140 0 227 102
q82 98 82 246zM1450 1516l-166 -261h-123l117 261h172z" />
    <glyph glyph-name="Dcroat" unicode="&#x110;" horiz-adv-x="1436" 
d="M1341 735q0 -331 -206 -531q-211 -204 -568 -204h-379v641h-159v156h159v637h396q757 0 757 -699zM1165 731q0 551 -585 551h-224v-485h336v-156h-336v-489h213q284 0 440 151t156 428z" />
    <glyph glyph-name="dcroat" unicode="&#x111;" horiz-adv-x="1198" 
d="M1032 0h-164v174h-4q-114 -199 -352 -199q-189 0 -304 134q-120 138 -120 378q0 256 128 409t341 153q208 0 307 -166h4v319h-331v133h331v181h164v-181h135v-133h-135v-1202zM868 463v151q0 123 -80 208q-83 87 -210 87q-150 0 -236 -109.5t-86 -303.5q0 -185 89 -287
q81 -94 214 -94q140 0 227 102q82 98 82 246z" />
    <glyph glyph-name="Emacron" unicode="&#x112;" horiz-adv-x="1036" 
d="M948 0h-760v1434h727v-152h-559v-477h518v-152h-518v-501h592v-152zM825 1566h-508v108h508v-108z" />
    <glyph glyph-name="emacron" unicode="&#x113;" horiz-adv-x="1055" 
d="M981 471h-723q4 -172 92 -264t242 -92q173 0 317 112v-153q-134 -99 -356 -99q-210 0 -333 132q-132 140 -132 401q0 247 143 399q134 142 328 142q208 0 318 -139q104 -130 104 -353v-86zM813 610q-2 140 -66 218q-67 81 -190 81q-116 0 -197 -82.5t-100 -216.5h553z
M812 1219h-508v108h508v-108z" />
    <glyph glyph-name="Ebreve" unicode="&#x114;" horiz-adv-x="1036" 
d="M948 0h-760v1434h727v-152h-559v-477h518v-152h-518v-501h592v-152zM829 1819q-11 -114 -89.5 -182.5t-189.5 -68.5q-117 0 -191.5 68.5t-78.5 182.5h100q12 -155 172 -155q66 0 115.5 41.5t58.5 113.5h103z" />
    <glyph glyph-name="ebreve" unicode="&#x115;" horiz-adv-x="1055" 
d="M981 471h-723q4 -172 92 -264t242 -92q173 0 317 112v-153q-134 -99 -356 -99q-210 0 -333 132q-132 140 -132 401q0 247 143 399q134 142 328 142q208 0 318 -139q104 -130 104 -353v-86zM813 610q-2 140 -66 218q-67 81 -190 81q-116 0 -197 -82.5t-100 -216.5h553z
M823 1470q-11 -114 -89.5 -182.5t-189.5 -68.5q-117 0 -191.5 68.5t-78.5 182.5h100q12 -155 172 -155q66 0 115.5 41.5t58.5 113.5h103z" />
    <glyph glyph-name="Edotaccent" unicode="&#x116;" horiz-adv-x="1036" 
d="M948 0h-760v1434h727v-152h-559v-477h518v-152h-518v-501h592v-152zM647 1665q0 -41 -28.5 -69.5t-69.5 -28.5q-40 0 -69 28t-29 70q0 41 29 68.5t69 27.5q41 0 69.5 -27.5t28.5 -68.5z" />
    <glyph glyph-name="edotaccent" unicode="&#x117;" horiz-adv-x="1055" 
d="M981 471h-723q4 -172 92 -264t242 -92q173 0 317 112v-153q-134 -99 -356 -99q-210 0 -333 132q-132 140 -132 401q0 247 143 399q134 142 328 142q208 0 318 -139q104 -130 104 -353v-86zM813 610q-2 140 -66 218q-67 81 -190 81q-116 0 -197 -82.5t-100 -216.5h553z
M664 1317q0 -41 -28.5 -69.5t-69.5 -28.5q-40 0 -69 28t-29 70q0 41 29 68.5t69 27.5q41 0 69.5 -27.5t28.5 -68.5z" />
    <glyph glyph-name="Eogonek" unicode="&#x118;" horiz-adv-x="1036" 
d="M925 -315q-57 -23 -127 -23q-73 0 -119.5 45.5t-46.5 126.5q0 65 63 166h-507v1434h727v-152h-559v-477h518v-152h-518v-501h592v-152h-130q-59 -101 -59 -166t67 -65q49 0 99 24v-108z" />
    <glyph glyph-name="eogonek" unicode="&#x119;" horiz-adv-x="1055" 
d="M739 -315q-56 -23 -127 -23q-73 0 -118 45q-48 46 -48 127q0 63 50 144q-186 18 -293 148q-115 139 -115 382q0 247 143 399q134 142 328 142q208 0 319 -139q103 -130 103 -353v-86h-723q5 -172 92 -264t242 -92q174 0 317 112v-153q-110 -80 -289 -96q-47 -81 -47 -144
q0 -65 68 -65q49 0 98 24v-108zM813 610q-2 140 -67 219.5t-189 79.5q-116 0 -197 -82t-100 -217h553z" />
    <glyph glyph-name="Ecaron" unicode="&#x11a;" horiz-adv-x="1036" 
d="M948 0h-760v1434h727v-152h-559v-477h518v-152h-518v-501h592v-152zM841 1896l-213 -329h-134l-215 329h115l164 -229l164 229h119z" />
    <glyph glyph-name="ecaron" unicode="&#x11b;" horiz-adv-x="1055" 
d="M981 471h-723q4 -172 92 -264t242 -92q173 0 317 112v-153q-134 -99 -356 -99q-210 0 -333 132q-132 140 -132 401q0 247 143 399q134 142 328 142q208 0 318 -139q104 -130 104 -353v-86zM813 610q-2 140 -66 218q-67 81 -190 81q-116 0 -197 -82.5t-100 -216.5h553z
M835 1548l-213 -329h-134l-215 329h115l164 -229l164 229h119z" />
    <glyph glyph-name="Gcircumflex" unicode="&#x11c;" horiz-adv-x="1405" 
d="M1260 98q-216 -123 -480 -123q-304 0 -493 195q-193 199 -193 528q0 335 213 549q209 211 531 211q233 0 393 -76v-186q-174 111 -412 111q-240 0 -393 -165q-156 -167 -156 -431q0 -280 150 -436q142 -148 381 -148q168 0 291 68v401h-314v152h482v-650zM1061 1569h-120
l-164 229l-166 -229h-113l215 331h133z" />
    <glyph glyph-name="gcircumflex" unicode="&#x11d;" horiz-adv-x="1198" 
d="M1032 82q0 -563 -540 -563q-190 0 -332 71v164q173 -96 329 -96q379 0 379 401v113h-4q-117 -197 -352 -197q-189 0 -305 135q-119 137 -119 369q0 259 124 412q126 158 345 158q207 0 307 -166h4v141h164v-942zM868 463v151q0 120 -80 206q-83 89 -208 89
q-151 0 -236 -107q-88 -110 -88 -313q0 -170 82.5 -272t218.5 -102q138 0 224.5 97.5t86.5 250.5zM856 1219h-120l-164 229l-166 -229h-113l215 331h133z" />
    <glyph glyph-name="Gbreve" unicode="&#x11e;" horiz-adv-x="1405" 
d="M1260 98q-216 -123 -480 -123q-304 0 -493 195q-193 199 -193 528q0 335 213 549q209 211 531 211q233 0 393 -76v-186q-174 111 -412 111q-240 0 -393 -165q-156 -167 -156 -431q0 -280 150 -436q142 -148 381 -148q168 0 291 68v401h-314v152h482v-650zM1067 1817
q-11 -114 -89.5 -182.5t-189.5 -68.5q-117 0 -191.5 68.5t-78.5 182.5h100q12 -155 172 -155q66 0 115.5 41.5t58.5 113.5h103z" />
    <glyph glyph-name="gbreve" unicode="&#x11f;" horiz-adv-x="1198" 
d="M1032 82q0 -563 -540 -563q-190 0 -332 71v164q173 -96 329 -96q379 0 379 401v113h-4q-117 -197 -352 -197q-189 0 -305 135q-119 137 -119 369q0 259 124 412q126 158 345 158q207 0 307 -166h4v141h164v-942zM868 463v151q0 120 -80 206q-83 89 -208 89
q-151 0 -236 -107q-88 -110 -88 -313q0 -170 82.5 -272t218.5 -102q138 0 224.5 97.5t86.5 250.5zM859 1470q-11 -114 -89.5 -182.5t-189.5 -68.5q-117 0 -191.5 68.5t-78.5 182.5h100q12 -155 172 -155q66 0 115.5 41.5t58.5 113.5h103z" />
    <glyph glyph-name="Gdotaccent" unicode="&#x120;" horiz-adv-x="1405" 
d="M1260 98q-216 -123 -480 -123q-304 0 -493 195q-193 199 -193 528q0 335 213 549q209 211 531 211q233 0 393 -76v-186q-174 111 -412 111q-240 0 -393 -165q-156 -167 -156 -431q0 -280 150 -436q142 -148 381 -148q168 0 291 68v401h-314v152h482v-650zM895 1665
q0 -41 -28.5 -69.5t-69.5 -28.5q-40 0 -69 28t-29 70q0 41 29 68.5t69 27.5q41 0 69.5 -27.5t28.5 -68.5z" />
    <glyph glyph-name="gdotaccent" unicode="&#x121;" horiz-adv-x="1198" 
d="M1032 82q0 -563 -540 -563q-190 0 -332 71v164q173 -96 329 -96q379 0 379 401v113h-4q-117 -197 -352 -197q-189 0 -305 135q-119 137 -119 369q0 259 124 412q126 158 345 158q207 0 307 -166h4v141h164v-942zM868 463v151q0 120 -80 206q-83 89 -208 89
q-151 0 -236 -107q-88 -110 -88 -313q0 -170 82.5 -272t218.5 -102q138 0 224.5 97.5t86.5 250.5zM664 1317q0 -41 -28.5 -69.5t-69.5 -28.5q-40 0 -69 28t-29 70q0 41 29 68.5t69 27.5q41 0 69.5 -27.5t28.5 -68.5z" />
    <glyph glyph-name="Gcommaaccent" unicode="&#x122;" horiz-adv-x="1405" 
d="M1260 98q-203 -116 -449 -123v-79q87 0 138.5 -40.5t51.5 -111.5q0 -176 -274 -176q-39 0 -65 2v90q42 -6 69 -6q141 0 141 90q0 78 -129 78q-18 0 -41 -4v162q-273 25 -438 216q-170 196 -170 502q0 335 213 549q210 211 531 211q232 0 393 -76v-186q-173 111 -412 111
t-394 -166t-155 -430q0 -280 150 -436q142 -148 381 -148q166 0 291 68v401h-314v152h482v-650z" />
    <glyph glyph-name="gcommaaccent" unicode="&#x123;" horiz-adv-x="1198" 
d="M1032 82q0 -563 -540 -563q-193 0 -332 71v164q174 -96 329 -96q379 0 379 401v113h-4q-116 -197 -352 -197q-189 0 -305 135q-119 138 -119 369q0 258 124 412q127 158 345 158q209 0 307 -166h4v141h164v-942zM868 463v151q0 121 -80 206q-83 89 -208 89
q-152 0 -237 -107q-87 -110 -87 -313q0 -169 82.5 -271.5t218.5 -102.5q138 0 224.5 97t86.5 251zM463 1219l166 260h123l-117 -260h-172z" />
    <glyph glyph-name="Hcircumflex" unicode="&#x124;" horiz-adv-x="1454" 
d="M1266 0h-168v653h-742v-653h-168v1434h168v-629h742v629h168v-1434zM1006 1567h-120l-164 229l-166 -229h-113l215 331h133z" />
    <glyph glyph-name="hcircumflex" unicode="&#x125;" 
d="M1016 0h-164v590q0 319 -238 319q-119 0 -200 -89q-84 -93 -84 -240v-580h-164v1516h164v-662h4q119 195 336 195q346 0 346 -418v-631zM911 1648h-120l-164 229l-166 -229h-113l215 331h133z" />
    <glyph glyph-name="Hbar" unicode="&#x126;" horiz-adv-x="1454" 
d="M356 1028v-223h742v223h-742zM1266 0h-168v653h-742v-653h-168v1028h-159v152h159v254h168v-254h742v254h168v-254h159v-152h-159v-1028z" />
    <glyph glyph-name="hbar" unicode="&#x127;" 
d="M1016 0h-164v590q0 319 -238 319q-118 0 -200 -89q-84 -94 -84 -240v-580h-164v1202h-135v133h135v181h164v-181h332v-133h-332v-348h4q119 195 336 195q167 0 256.5 -108t89.5 -310v-631z" />
    <glyph glyph-name="Itilde" unicode="&#x128;" horiz-adv-x="545" 
d="M356 0h-168v1434h168v-1434zM593 1803q0 -99 -43 -165q-49 -72 -135 -72q-71 0 -162 51q-77 43 -119 43q-88 0 -88 -113h-94q0 103 44 167q49 69 138 69q66 0 150 -52q74 -45 127 -45q84 0 84 117h98z" />
    <glyph glyph-name="itilde" unicode="&#x129;" horiz-adv-x="496" 
d="M330 0h-164v1024h164v-1024zM569 1458q0 -99 -43 -165q-49 -72 -135 -72q-71 0 -162 51q-77 43 -119 43q-88 0 -88 -113h-94q0 103 44 167q49 69 138 69q66 0 150 -52q74 -45 127 -45q84 0 84 117h98z" />
    <glyph glyph-name="Imacron" unicode="&#x12a;" horiz-adv-x="545" 
d="M356 0h-168v1434h168v-1434zM527 1566h-508v108h508v-108z" />
    <glyph glyph-name="imacron" unicode="&#x12b;" horiz-adv-x="496" 
d="M330 0h-164v1024h164v-1024zM504 1219h-508v108h508v-108z" />
    <glyph glyph-name="Ibreve" unicode="&#x12c;" horiz-adv-x="545" 
d="M356 0h-168v1434h168v-1434zM547 1818q-11 -114 -89.5 -182.5t-189.5 -68.5q-117 0 -191.5 68.5t-78.5 182.5h100q12 -155 172 -155q66 0 115.5 41.5t58.5 113.5h103z" />
    <glyph glyph-name="ibreve" unicode="&#x12d;" horiz-adv-x="496" 
d="M330 0h-164v1024h164v-1024zM524 1470q-11 -114 -89.5 -182.5t-189.5 -68.5q-117 0 -191.5 68.5t-78.5 182.5h100q12 -155 172 -155q66 0 115.5 41.5t58.5 113.5h103z" />
    <glyph glyph-name="Iogonek" unicode="&#x12e;" horiz-adv-x="545" 
d="M420 -315q-56 -23 -127 -23q-73 0 -118 45q-48 46 -48 127q0 65 63 166h-2v1434h168v-1434h-43q-59 -101 -59 -166t68 -65q49 0 98 24v-108z" />
    <glyph glyph-name="iogonek" unicode="&#x12f;" horiz-adv-x="496" 
d="M358 1391q0 -45 -31.5 -76t-76.5 -31q-44 0 -75.5 30t-31.5 77q0 45 31.5 75.5t75.5 30.5q45 0 76.5 -30.5t31.5 -75.5zM397 -315q-57 -23 -127 -23q-73 0 -119.5 45.5t-46.5 126.5q0 65 63 166h-1v1024h164v-1024h-40q-59 -101 -59 -166t67 -65q50 0 99 24v-108z" />
    <glyph glyph-name="Idotaccent" unicode="&#x130;" horiz-adv-x="545" 
d="M356 0h-168v1434h168v-1434zM369 1665q0 -41 -28.5 -69.5t-69.5 -28.5q-40 0 -69 28t-29 70q0 41 29 68.5t69 27.5q41 0 69.5 -27.5t28.5 -68.5z" />
    <glyph glyph-name="IJ" unicode="&#x132;" horiz-adv-x="1276" 
d="M356 0h-168v1434h168v-1434zM1100 514q0 -265 -117 -408q-107 -131 -281 -131q-85 0 -137 25v166q54 -39 140 -39q227 0 227 385v922h168v-920z" />
    <glyph glyph-name="ij" unicode="&#x133;" horiz-adv-x="991" 
d="M358 1391q0 -45 -31.5 -76t-76.5 -31q-44 0 -75.5 30t-31.5 77q0 45 31.5 75.5t75.5 30.5q45 0 76.5 -30.5t31.5 -75.5zM330 0h-164v1024h164v-1024zM854 1391q0 -45 -32 -76t-77 -31q-44 0 -75 30t-31 77q0 45 31.5 75.5t74.5 30.5q46 0 77.5 -30.5t31.5 -75.5zM825 43
q0 -257 -105 -393q-101 -131 -286 -131q-76 0 -137 30v154q78 -45 141 -45q224 0 224 358v1008h163v-981z" />
    <glyph glyph-name="Jcircumflex" unicode="&#x134;" horiz-adv-x="731" 
d="M555 514q0 -265 -117 -409q-106 -130 -280 -130q-83 0 -138 25v166q53 -39 140 -39q227 0 227 385v922h168v-920zM753 1567h-120l-164 229l-166 -229h-113l215 331h133z" />
    <glyph glyph-name="jcircumflex" unicode="&#x135;" horiz-adv-x="496" 
d="M330 43q0 -257 -105 -393q-102 -131 -286 -131q-76 0 -138 30v154q78 -45 142 -45q223 0 223 358v1008h164v-981zM526 1219h-120l-164 229l-166 -229h-113l215 331h133z" />
    <glyph glyph-name="Kcommaaccent" unicode="&#x136;" horiz-adv-x="1188" 
d="M1186 0h-234l-555 655q-22 27 -37 52h-4v-707h-168v1434h168v-674h4q14 21 37 49l537 625h209l-615 -689zM742 -119l-166 -260h-123l117 260h172z" />
    <glyph glyph-name="kcommaaccent" unicode="&#x137;" horiz-adv-x="1018" 
d="M1016 0h-230l-452 492h-4v-492h-164v1516h164v-961h4l430 469h215l-475 -494zM643 -119l-166 -260h-123l117 260h172z" />
    <glyph glyph-name="kgreenlandic" unicode="&#x138;" horiz-adv-x="1018" 
d="M1016 0h-230l-452 492h-4v-492h-164v1024h164v-469h4l430 469h215l-475 -494z" />
    <glyph glyph-name="Lacute" unicode="&#x139;" horiz-adv-x="965" 
d="M932 0h-744v1434h168v-1282h576v-152zM856 1894l-262 -327h-127l223 327h166z" />
    <glyph glyph-name="lacute" unicode="&#x13a;" horiz-adv-x="496" 
d="M330 0h-164v1516h164v-1516zM536 1979l-262 -327h-127l223 327h166z" />
    <glyph glyph-name="Lcommaaccent" unicode="&#x13b;" horiz-adv-x="965" 
d="M766 -256q0 -176 -274 -176q-43 0 -66 2v90q37 -6 70 -6q141 0 141 90q0 78 -129 78q-12 0 -41 -4v182h-279v1434h168v-1282h576v-152h-357v-104q86 0 138.5 -40.5t52.5 -111.5z" />
    <glyph glyph-name="lcommaaccent" unicode="&#x13c;" horiz-adv-x="496" 
d="M477 -256q0 -176 -274 -176q-43 0 -66 2v90q37 -6 70 -6q141 0 141 90q0 78 -129 78q-12 0 -41 -4v182h-12v1516h164v-1516h-43v-104q86 0 138 -40.5t52 -111.5z" />
    <glyph glyph-name="Lcaron" unicode="&#x13d;" horiz-adv-x="965" 
d="M932 0h-744v1434h168v-1282h576v-152zM905 1434l-166 -260h-123l117 260h172z" />
    <glyph glyph-name="lcaron" unicode="&#x13e;" horiz-adv-x="604" 
d="M330 0h-164v1516h164v-1516zM707 1509l-166 -260h-123l117 260h172z" />
    <glyph glyph-name="Ldot" unicode="&#x13f;" horiz-adv-x="965" 
d="M932 0h-744v1434h168v-1282h576v-152zM834 764q0 -42 -28.5 -70t-70.5 -28q-39 0 -68.5 28t-29.5 70t29.5 69t68.5 27q41 0 70 -27.5t29 -68.5z" />
    <glyph glyph-name="ldot" unicode="&#x140;" horiz-adv-x="645" 
d="M330 0h-164v1516h164v-1516zM647 764q0 -42 -28.5 -70t-69.5 -28q-40 0 -69 28t-29 70t29 69t69 27t69 -27.5t29 -68.5z" />
    <glyph glyph-name="Nacute" unicode="&#x143;" horiz-adv-x="1532" 
d="M1343 0h-204l-740 1143q-26 41 -45 90h-6q8 -46 8 -197v-1036h-168v1434h218l718 -1125q43 -67 58 -96h4q-10 62 -10 211v1010h167v-1434zM1006 1894l-262 -327h-127l223 327h166z" />
    <glyph glyph-name="nacute" unicode="&#x144;" 
d="M1016 0h-164v584q0 325 -238 325q-123 0 -203.5 -92t-80.5 -233v-584h-164v1024h164v-170h4q115 195 336 195q169 0 257.5 -110t88.5 -312v-627zM836 1546l-262 -327h-127l223 327h166z" />
    <glyph glyph-name="Ncommaaccent" unicode="&#x145;" horiz-adv-x="1532" 
d="M1343 0h-204l-740 1143q-26 41 -45 90h-6q8 -46 8 -197v-1036h-168v1434h218l718 -1125q43 -67 58 -96h4q-10 62 -10 211v1010h167v-1434zM870 -119l-166 -260h-123l117 260h172z" />
    <glyph glyph-name="ncommaaccent" unicode="&#x146;" 
d="M1016 0h-164v584q0 325 -238 325q-123 0 -203.5 -92t-80.5 -233v-584h-164v1024h164v-170h4q115 195 336 195q169 0 257.5 -110t88.5 -312v-627zM692 -119l-166 -260h-123l117 260h172z" />
    <glyph glyph-name="Ncaron" unicode="&#x147;" horiz-adv-x="1532" 
d="M1343 0h-204l-740 1143q-26 41 -45 90h-6q8 -46 8 -197v-1036h-168v1434h218l718 -1125q43 -67 58 -96h4q-10 62 -10 211v1010h167v-1434zM1046 1896l-213 -329h-134l-215 329h115l164 -229l164 229h119z" />
    <glyph glyph-name="ncaron" unicode="&#x148;" 
d="M1016 0h-164v584q0 325 -238 325q-123 0 -203.5 -92t-80.5 -233v-584h-164v1024h164v-170h4q115 195 336 195q169 0 257.5 -110t88.5 -312v-627zM882 1548l-213 -329h-134l-215 329h115l164 -229l164 229h119z" />
    <glyph glyph-name="napostrophe" unicode="&#x149;" horiz-adv-x="1241" 
d="M1098 0h-164v584q0 325 -238 325q-123 0 -203.5 -92t-80.5 -233v-584h-164v1024h164v-170h4q117 195 336 195q346 0 346 -422v-627zM217 1458l-141 -446h-117l111 446h147z" />
    <glyph glyph-name="Eng" unicode="&#x14a;" horiz-adv-x="1532" 
d="M399 1143q-22 32 -45 90h-6q8 -53 8 -197v-1036h-168v1434h218l718 -1065q2 -3 58 -105h4q-10 72 -10 219v951h167v-1371q0 -485 -364 -485q-76 0 -137 31v166q78 -45 141 -45q188 0 188 270z" />
    <glyph glyph-name="eng" unicode="&#x14b;" 
d="M1016 27q0 -449 -359 -449q-75 0 -137 31v166q78 -45 142 -45q190 0 190 270v584q0 325 -238 325q-123 0 -203.5 -92t-80.5 -233v-584h-164v1024h164v-170h4q117 195 336 195q346 0 346 -422v-600z" />
    <glyph glyph-name="Omacron" unicode="&#x14c;" horiz-adv-x="1544" 
d="M1450 735q0 -352 -188 -558q-185 -202 -496 -202q-308 0 -493 206q-179 200 -179 519q0 338 179 543q187 215 518 215q296 0 477.5 -200t181.5 -523zM1274 713q0 287 -136 444q-131 150 -360 150q-225 0 -366.5 -164t-141.5 -428q0 -268 140 -430q136 -158 356 -158
q232 0 367 149q141 155 141 437zM1033 1567h-508v108h508v-108z" />
    <glyph glyph-name="omacron" unicode="&#x14d;" horiz-adv-x="1184" 
d="M1096 516q0 -245 -138 -393t-372 -148q-231 0 -366 148q-132 143 -132 377q0 267 150 413q139 136 372 136q229 0 357.5 -142t128.5 -391zM928 510q0 197 -89 300q-86 99 -241 99q-153 0 -245 -100q-97 -107 -97 -303q0 -184 93 -287.5t249 -103.5q162 0 247 105
q83 102 83 290zM856 1219h-508v108h508v-108z" />
    <glyph glyph-name="Obreve" unicode="&#x14e;" horiz-adv-x="1544" 
d="M1450 735q0 -352 -188 -558q-185 -202 -496 -202q-308 0 -493 206q-179 200 -179 519q0 338 179 543q187 215 518 215q296 0 477.5 -200t181.5 -523zM1274 713q0 287 -136 444q-131 150 -360 150q-225 0 -366.5 -164t-141.5 -428q0 -268 140 -430q136 -158 356 -158
q232 0 367 149q141 155 141 437zM1056 1819q-11 -114 -89.5 -182.5t-189.5 -68.5q-117 0 -191.5 68.5t-78.5 182.5h100q12 -155 172 -155q66 0 115.5 41.5t58.5 113.5h103z" />
    <glyph glyph-name="obreve" unicode="&#x14f;" horiz-adv-x="1184" 
d="M1096 516q0 -245 -138 -393t-372 -148q-231 0 -366 148q-132 143 -132 377q0 267 150 413q139 136 372 136q229 0 357.5 -142t128.5 -391zM928 510q0 197 -89 300q-86 99 -241 99q-153 0 -245 -100q-97 -107 -97 -303q0 -184 93 -287.5t249 -103.5q162 0 247 105
q83 102 83 290zM887 1470q-11 -114 -89.5 -182.5t-189.5 -68.5q-117 0 -191.5 68.5t-78.5 182.5h100q12 -155 172 -155q66 0 115.5 41.5t58.5 113.5h103z" />
    <glyph glyph-name="Ohungarumlaut" unicode="&#x150;" horiz-adv-x="1544" 
d="M1450 735q0 -352 -188 -558q-185 -202 -496 -202q-308 0 -493 206q-179 200 -179 519q0 338 179 543q187 215 518 215q296 0 477.5 -200t181.5 -523zM1274 713q0 287 -136 444q-131 150 -360 150q-225 0 -366.5 -164t-141.5 -428q0 -268 140 -430q136 -158 356 -158
q232 0 367 149q141 155 141 437zM1128 1885l-246 -317h-96l209 317h133zM880 1885l-239 -317h-97l207 317h129z" />
    <glyph glyph-name="ohungarumlaut" unicode="&#x151;" horiz-adv-x="1184" 
d="M1096 516q0 -245 -138 -393t-372 -148q-231 0 -366 148q-132 143 -132 377q0 267 150 413q139 136 372 136q229 0 357.5 -142t128.5 -391zM928 510q0 197 -89 300q-86 99 -241 99q-153 0 -245 -100q-97 -107 -97 -303q0 -184 93 -287.5t249 -103.5q162 0 247 105
q83 102 83 290zM958 1536l-246 -317h-96l209 317h133zM710 1536l-239 -317h-97l207 317h129z" />
    <glyph glyph-name="Racute" unicode="&#x154;" horiz-adv-x="1178" 
d="M1110 0h-201l-188 432q-78 178 -219 178h-146v-610h-168v1434h428q212 0 328 -109q109 -102 109 -272q0 -155 -87.5 -259.5t-232.5 -138.5v-4q80 -28 148 -170zM877 1038q0 114 -75 179t-216 65h-230v-520h222q133 0 216 76.5t83 199.5zM852 1894l-262 -327h-127l223 327
h166z" />
    <glyph glyph-name="racute" unicode="&#x155;" horiz-adv-x="713" 
d="M700 858q-43 33 -125 33q-100 0 -168 -90q-77 -101 -77 -279v-522h-164v1024h164v-211h4q36 112 111 173q70 56 157 56q65 0 98 -14v-170zM688 1546l-262 -327h-127l223 327h166z" />
    <glyph glyph-name="Rcommaaccent" unicode="&#x156;" horiz-adv-x="1178" 
d="M1110 0h-201l-188 432q-78 178 -219 178h-146v-610h-168v1434h428q212 0 328 -109q109 -102 109 -272q0 -155 -87.5 -259.5t-232.5 -138.5v-4q80 -28 148 -170zM877 1038q0 114 -75 179t-216 65h-230v-520h222q133 0 216 76.5t83 199.5zM713 -119l-166 -260h-123l117 260
h172z" />
    <glyph glyph-name="rcommaaccent" unicode="&#x157;" horiz-adv-x="713" 
d="M700 858q-43 33 -125 33q-100 0 -168 -90q-77 -101 -77 -279v-522h-164v1024h164v-211h4q36 112 111 173q70 56 157 56q65 0 98 -14v-170zM533 -119l-166 -260h-123l117 260h172z" />
    <glyph glyph-name="Rcaron" unicode="&#x158;" horiz-adv-x="1178" 
d="M1110 0h-201l-188 432q-78 178 -219 178h-146v-610h-168v1434h428q212 0 328 -109q109 -102 109 -272q0 -155 -87.5 -259.5t-232.5 -138.5v-4q80 -28 148 -170zM877 1038q0 114 -75 179t-216 65h-230v-520h222q133 0 216 76.5t83 199.5zM867 1896l-213 -329h-134
l-215 329h115l164 -229l164 229h119z" />
    <glyph glyph-name="rcaron" unicode="&#x159;" horiz-adv-x="713" 
d="M700 858q-43 33 -125 33q-100 0 -168 -90q-77 -101 -77 -279v-522h-164v1024h164v-211h4q36 112 111 173q70 56 157 56q65 0 98 -14v-170zM713 1548l-213 -329h-134l-215 329h115l164 -229l164 229h119z" />
    <glyph glyph-name="Sacute" unicode="&#x15a;" horiz-adv-x="1018" 
d="M920 362q0 -167 -111 -270q-126 -117 -365 -117q-80 0 -178 25t-145 57v199q67 -60 168 -96q94 -33 178 -33q276 0 276 215q0 93 -70 165q-62 63 -231 159q-177 100 -248 192t-71 217q0 165 121 272q127 111 334 111q193 0 282 -51v-188q-113 88 -291 88q-126 0 -200 -64
q-70 -60 -70 -153q0 -100 64 -167q54 -56 215 -145q176 -97 254 -187q88 -101 88 -229zM795 1893l-262 -327h-127l223 327h166z" />
    <glyph glyph-name="sacute" unicode="&#x15b;" horiz-adv-x="799" 
d="M725 274q0 -126 -94 -209q-103 -90 -281 -90q-146 0 -254 62v176q120 -98 266 -98q195 0 195 143q0 60 -43 99t-168 94q-129 56 -183 116q-65 71 -65 185q0 128 101 212.5t260 84.5q122 0 219 -48v-165q-101 73 -232 73q-82 0 -131 -40t-49 -103q0 -68 41 -106
q37 -35 154 -85q131 -55 189 -113q75 -74 75 -188zM678 1546l-262 -327h-127l223 327h166z" />
    <glyph glyph-name="Scircumflex" unicode="&#x15c;" horiz-adv-x="1018" 
d="M920 362q0 -167 -111 -270q-126 -117 -365 -117q-80 0 -178 25t-145 57v199q67 -60 168 -96q94 -33 178 -33q276 0 276 215q0 93 -70 165q-62 63 -231 159q-177 100 -248 192t-71 217q0 165 121 272q127 111 334 111q193 0 282 -51v-188q-113 88 -291 88q-126 0 -200 -64
q-70 -60 -70 -153q0 -100 64 -167q54 -56 215 -145q176 -97 254 -187q88 -101 88 -229zM808 1567h-120l-164 229l-166 -229h-113l215 331h133z" />
    <glyph glyph-name="scircumflex" unicode="&#x15d;" horiz-adv-x="799" 
d="M725 274q0 -126 -94 -209q-103 -90 -281 -90q-146 0 -254 62v176q120 -98 266 -98q195 0 195 143q0 60 -43 99t-168 94q-129 56 -183 116q-65 71 -65 185q0 128 101 212.5t260 84.5q122 0 219 -48v-165q-101 73 -232 73q-82 0 -131 -40t-49 -103q0 -68 41 -106
q37 -35 154 -85q131 -55 189 -113q75 -74 75 -188zM703 1219h-120l-164 229l-166 -229h-113l215 331h133z" />
    <glyph glyph-name="Scedilla" unicode="&#x15e;" horiz-adv-x="1018" 
d="M715 -256q0 -176 -275 -176q-43 0 -65 2v90q37 -6 69 -6q142 0 142 90q0 78 -129 78q-13 0 -41 -4v158q-192 11 -295 81v199q145 -129 346 -129q276 0 276 215q0 93 -70 165q-62 63 -231 159q-177 100 -249 194q-70 91 -70 215q0 164 121 272q127 111 334 111
q189 0 282 -51v-188q-111 88 -291 88q-126 0 -200 -64q-70 -59 -70 -153q0 -101 64 -168q53 -55 215 -144q176 -97 254 -187q88 -100 88 -229q0 -151 -93 -252q-104 -112 -303 -131v-83q86 0 138.5 -40.5t52.5 -111.5z" />
    <glyph glyph-name="scedilla" unicode="&#x15f;" horiz-adv-x="799" 
d="M622 -256q0 -176 -275 -176q-43 0 -65 2v90q36 -6 69 -6q142 0 142 90q0 78 -130 78q-12 0 -40 -4v159q-136 9 -227 60v176q121 -98 266 -98q195 0 195 143q0 60 -43 99t-168 94q-129 56 -183 115q-65 71 -65 186q0 128 101 212.5t260 84.5q125 0 219 -48v-165
q-103 73 -232 73q-82 0 -131 -39.5t-49 -103.5q0 -67 41 -106q38 -36 154 -85q130 -55 189 -113q75 -74 75 -188q0 -110 -74 -189q-79 -85 -220 -104v-85q86 0 138.5 -40.5t52.5 -111.5z" />
    <glyph glyph-name="Tcommaaccent" unicode="&#x162;" horiz-adv-x="1073" 
d="M764 -256q0 -176 -275 -176q-43 0 -65 2v90q37 -6 70 -6q141 0 141 90q0 78 -129 78q-12 0 -41 -4v182h-10v1282h-414v152h995v-152h-413v-1282h-50v-104q86 0 138.5 -40.5t52.5 -111.5z" />
    <glyph glyph-name="tcommaaccent" unicode="&#x163;" horiz-adv-x="694" 
d="M666 -256q0 -176 -275 -176q-43 0 -65 2v90q36 -6 69 -6q142 0 142 90q0 78 -129 78q-13 0 -41 -4v179q-148 56 -148 282v606h-176v139h176v250q4 2 82 27q78 24 82 26v-303h258v-139h-258v-578q0 -104 35 -147t117 -43q59 0 106 33v-140q-60 -34 -154 -33l-12 1v-82
q86 0 138.5 -40.5t52.5 -111.5z" />
    <glyph glyph-name="Tcaron" unicode="&#x164;" horiz-adv-x="1073" 
d="M1036 1282h-413v-1282h-168v1282h-414v152h995v-152zM821 1896l-213 -329h-134l-215 329h115l164 -229l164 229h119z" />
    <glyph glyph-name="tcaron" unicode="&#x165;" horiz-adv-x="842" 
d="M641 10q-58 -33 -154 -33q-268 0 -268 302v606h-176v139h176v250q4 2 82 27q78 24 82 26v-303h258v-139h-258v-578q0 -104 35 -147t117 -43q59 0 106 33v-140zM979 1395l-166 -260h-123l117 260h172z" />
    <glyph glyph-name="Tbar" unicode="&#x166;" horiz-adv-x="1073" 
d="M1036 1282h-413v-485h245v-156h-245v-641h-168v641h-250v156h250v485h-414v152h995v-152z" />
    <glyph glyph-name="tbar" unicode="&#x167;" horiz-adv-x="694" 
d="M631 547h-248v-240q0 -104 35 -147t117 -43q59 0 106 33v-140q-58 -33 -154 -33q-268 0 -268 302v268h-164v133h164v205h-176v139h176v250q4 2 82 27q78 24 82 26v-303h258v-139h-258v-205h248v-133z" />
    <glyph glyph-name="Utilde" unicode="&#x168;" horiz-adv-x="1407" 
d="M1237 580q0 -605 -545 -605q-522 0 -522 582v877h168v-867q0 -440 373 -440q358 0 358 426v881h168v-854zM1026 1806q0 -99 -43 -165q-49 -72 -135 -72q-71 0 -162 51q-77 43 -119 43q-88 0 -88 -113h-94q0 103 44 167q49 69 138 69q66 0 150 -52q74 -45 127 -45
q84 0 84 117h98z" />
    <glyph glyph-name="utilde" unicode="&#x169;" 
d="M993 0h-164v162h-4q-102 -187 -315 -187q-367 0 -367 437v612h164v-586q0 -323 248 -323q119 0 196.5 86.5t77.5 232.5v590h164v-1024zM890 1458q0 -99 -43 -165q-49 -72 -135 -72q-71 0 -162 51q-77 43 -119 43q-88 0 -88 -113h-94q0 103 44 167q49 69 138 69
q66 0 150 -52q74 -45 127 -45q84 0 84 117h98z" />
    <glyph glyph-name="Umacron" unicode="&#x16a;" horiz-adv-x="1407" 
d="M1237 580q0 -605 -545 -605q-522 0 -522 582v877h168v-867q0 -440 373 -440q358 0 358 426v881h168v-854zM955 1566h-508v108h508v-108z" />
    <glyph glyph-name="umacron" unicode="&#x16b;" 
d="M993 0h-164v162h-4q-102 -187 -315 -187q-367 0 -367 437v612h164v-586q0 -323 248 -323q119 0 196.5 86.5t77.5 232.5v590h164v-1024zM819 1219h-508v108h508v-108z" />
    <glyph glyph-name="Ubreve" unicode="&#x16c;" horiz-adv-x="1407" 
d="M1237 580q0 -605 -545 -605q-522 0 -522 582v877h168v-867q0 -440 373 -440q358 0 358 426v881h168v-854zM974 1818q-11 -114 -89.5 -182.5t-189.5 -68.5q-117 0 -191.5 68.5t-78.5 182.5h100q12 -155 172 -155q66 0 115.5 41.5t58.5 113.5h103z" />
    <glyph glyph-name="ubreve" unicode="&#x16d;" 
d="M993 0h-164v162h-4q-102 -187 -315 -187q-367 0 -367 437v612h164v-586q0 -323 248 -323q119 0 196.5 86.5t77.5 232.5v590h164v-1024zM838 1470q-11 -114 -89.5 -182.5t-189.5 -68.5q-117 0 -191.5 68.5t-78.5 182.5h100q12 -155 172 -155q66 0 115.5 41.5t58.5 113.5
h103z" />
    <glyph glyph-name="Uring" unicode="&#x16e;" horiz-adv-x="1407" 
d="M1237 580q0 -605 -545 -605q-522 0 -522 582v877h168v-867q0 -440 373 -440q358 0 358 426v881h168v-854zM892 1763q0 -83 -61.5 -139.5t-147.5 -56.5q-88 0 -145.5 52.5t-57.5 137.5q0 90 61 145q58 54 148 54q89 0 146 -54.5t57 -138.5zM797 1761q0 49 -32.5 81
t-81.5 32t-81 -32.5t-32 -80.5q0 -113 113 -113q49 0 81.5 32.5t32.5 80.5z" />
    <glyph glyph-name="uring" unicode="&#x16f;" 
d="M993 0h-164v162h-4q-102 -187 -315 -187q-367 0 -367 437v612h164v-586q0 -323 248 -323q119 0 196.5 86.5t77.5 232.5v590h164v-1024zM774 1372q0 -83 -61.5 -139.5t-147.5 -56.5q-88 0 -145.5 52.5t-57.5 137.5q0 90 61 145q58 54 148 54q89 0 146 -54.5t57 -138.5z
M679 1370q0 49 -32.5 81t-81.5 32t-81 -32.5t-32 -80.5q0 -113 113 -113q49 0 81.5 32.5t32.5 80.5z" />
    <glyph glyph-name="Uhungarumlaut" unicode="&#x170;" horiz-adv-x="1407" 
d="M1237 580q0 -605 -545 -605q-522 0 -522 582v877h168v-867q0 -440 373 -440q358 0 358 426v881h168v-854zM1051 1884l-246 -317h-96l209 317h133zM803 1884l-239 -317h-97l207 317h129z" />
    <glyph glyph-name="uhungarumlaut" unicode="&#x171;" 
d="M993 0h-164v162h-4q-102 -187 -315 -187q-367 0 -367 437v612h164v-586q0 -323 248 -323q119 0 196.5 86.5t77.5 232.5v590h164v-1024zM908 1536l-246 -317h-96l209 317h133zM660 1536l-239 -317h-97l207 317h129z" />
    <glyph glyph-name="Uogonek" unicode="&#x172;" horiz-adv-x="1407" 
d="M877 -315q-56 -23 -127 -23q-73 0 -119 45.5t-46 126.5q0 63 49 143q-464 33 -464 580v877h168v-867q0 -440 373 -440q358 0 358 426v881h168v-854q0 -567 -479 -602q-46 -81 -46 -144q0 -65 67 -65q49 0 98 24v-108z" />
    <glyph glyph-name="uogonek" unicode="&#x173;" 
d="M1059 -315q-57 -23 -127 -23q-73 0 -118 45q-48 46 -48 127q0 65 63 166v162h-4q-103 -187 -315 -187q-367 0 -367 437v612h164v-586q0 -323 248 -323q118 0 195 85q79 89 79 234v590h164v-1024h-41q-59 -101 -59 -166t68 -65q49 0 98 24v-108z" />
    <glyph glyph-name="Wcircumflex" unicode="&#x174;" horiz-adv-x="1913" 
d="M1888 1434l-405 -1434h-197l-295 1049q-19 68 -22 145h-4q-7 -74 -27 -143l-297 -1051h-195l-419 1434h184l305 -1100q19 -68 25 -144h4q4 53 30 144l318 1100h162l303 -1108q16 -61 24 -133h4q4 51 27 137l293 1104h182zM1258 1567h-120l-164 229l-166 -229h-113
l215 331h133z" />
    <glyph glyph-name="wcircumflex" unicode="&#x175;" horiz-adv-x="1481" 
d="M1456 1024l-307 -1024h-170l-211 733q-11 40 -16 94h-4q-3 -35 -21 -92l-229 -735h-164l-309 1024h172l211 -770q10 -40 14 -92h8q3 43 19 94l235 768h150l213 -772q10 -37 14 -92h8q2 39 16 92l209 772h162zM1040 1219h-120l-164 229l-166 -229h-113l215 331h133z" />
    <glyph glyph-name="Ycircumflex" unicode="&#x176;" horiz-adv-x="1133" 
d="M1120 1434l-473 -904v-530h-168v526l-461 908h191l321 -648q14 -33 35 -88h2q11 34 39 88l336 648h178zM853 1566h-120l-164 229l-166 -229h-113l215 331h133z" />
    <glyph glyph-name="ycircumflex" unicode="&#x177;" horiz-adv-x="991" 
d="M981 1024l-471 -1188q-126 -317 -354 -317q-64 0 -107 12v147q53 -18 96 -18q125 0 187 147l82 195l-400 1022h183l276 -788q8 -22 21 -78h6q5 24 20 75l291 791h170zM796 1219h-120l-164 229l-166 -229h-113l215 331h133z" />
    <glyph glyph-name="Zacute" unicode="&#x179;" horiz-adv-x="1167" 
d="M1124 1395l-839 -1243h819v-152h-1071v47l833 1235h-766v152h1024v-39zM868 1895l-262 -327h-127l223 327h166z" />
    <glyph glyph-name="zacute" unicode="&#x17a;" horiz-adv-x="926" 
d="M881 977l-607 -838h600v-139h-841v51l606 834h-549v139h791v-47zM723 1546l-262 -327h-127l223 327h166z" />
    <glyph glyph-name="Zdotaccent" unicode="&#x17b;" horiz-adv-x="1167" 
d="M1124 1395l-839 -1243h819v-152h-1071v47l833 1235h-766v152h1024v-39zM691 1664q0 -41 -28.5 -69.5t-69.5 -28.5q-40 0 -69 28t-29 70q0 41 29 68.5t69 27.5q41 0 69.5 -27.5t28.5 -68.5z" />
    <glyph glyph-name="zdotaccent" unicode="&#x17c;" horiz-adv-x="926" 
d="M881 977l-607 -838h600v-139h-841v51l606 834h-549v139h791v-47zM583 1317q0 -41 -28.5 -69.5t-69.5 -28.5q-40 0 -69 28t-29 70q0 41 29 68.5t69 27.5q41 0 69.5 -27.5t28.5 -68.5z" />
    <glyph glyph-name="longs" unicode="&#x17f;" horiz-adv-x="494" 
d="M610 1372q-45 27 -108 27q-172 0 -172 -217v-1182h-164v1190q0 169 104 265q91 83 222 83q74 0 118 -18v-148z" />
    <glyph glyph-name="Aringacute" unicode="&#x1fa;" horiz-adv-x="1321" 
d="M1298 0h-186l-151 401h-609l-143 -401h-186l528 1378q-100 52 -100 164q0 90 61 146q59 53 150 53q88 0 144 -54t56 -139q0 -112 -96 -166zM770 1548q0 49 -33 80t-82 31t-80.5 -31.5t-31.5 -79.5q0 -52 31.5 -83t80.5 -31t82 33t33 81zM905 553l-225 610q-12 32 -23 97
h-4q-10 -64 -22 -97l-223 -610h497zM924 2130l-262 -328h-127l223 328h166z" />
    <glyph glyph-name="aringacute" unicode="&#x1fb;" horiz-adv-x="1034" 
d="M891 0h-164v160h-4q-108 -185 -315 -185q-155 0 -243 86q-83 81 -83 211q0 287 338 334l307 43q0 260 -211 260q-186 0 -334 -125v168q46 34 144 64q110 33 204 33q361 0 361 -383v-666zM727 518l-248 -35q-135 -19 -185 -67q-44 -42 -44 -131q0 -74 52 -122t144 -48
q124 0 202.5 86t78.5 215v102zM719 1311q0 -84 -61 -140.5t-148 -56.5t-145 53t-58 138q0 90 61 145q58 53 148 53q89 0 146 -54t57 -138zM625 1309q0 48 -33.5 80t-81.5 32q-49 0 -81 -32t-32 -80q0 -113 113 -113q49 0 82 32.5t33 80.5zM784 1894l-262 -327h-127l223 327
h166z" />
    <glyph glyph-name="AEacute" unicode="&#x1fc;" horiz-adv-x="1761" 
d="M1667 0h-760v401h-510l-192 -401h-195l701 1434h923v-152h-559v-477h518v-152h-518v-501h592v-152zM907 553v729h-94l-346 -729h440zM1340 1894l-262 -327h-127l223 327h166z" />
    <glyph glyph-name="aeacute" unicode="&#x1fd;" horiz-adv-x="1688" 
d="M1614 471h-725q3 -173 92 -264.5t240 -91.5q177 0 321 112v-153q-133 -99 -358 -99q-270 0 -383 230h-4q-145 -230 -387 -230q-156 0 -244 85q-84 80 -84 212q0 300 383 324l262 16q0 297 -215 297q-175 0 -330 -121v164q148 97 348 97q231 0 299 -201h5q116 201 356 201
q206 0 318 -138q106 -130 106 -356v-84zM1446 610q-2 141 -67.5 220t-186.5 79q-116 0 -199 -81.5t-102 -217.5h555zM727 410v63l-203 -12q-157 -10 -222 -59q-54 -42 -54 -126q0 -73 53 -117t143 -44q117 0 198 80q85 84 85 215zM1113 1546l-262 -327h-127l223 327h166z
" />
    <glyph glyph-name="Oslashacute" unicode="&#x1fe;" horiz-adv-x="1544" 
d="M1450 735q0 -352 -188 -558q-185 -202 -496 -202q-266 0 -442 156l-152 -182l-78 65l158 191q-158 195 -158 495q0 336 177 541q188 217 520 217q233 0 401 -129l135 162l78 -64l-139 -165q184 -201 184 -527zM1274 713q0 259 -117 417l-725 -866q131 -137 334 -137
q234 0 369 150q139 156 139 436zM1090 1204q-126 103 -312 103q-227 0 -367.5 -164.5t-140.5 -427.5q0 -223 99 -373zM1030 1894l-262 -327h-127l223 327h166z" />
    <glyph glyph-name="oslashacute" unicode="&#x1ff;" horiz-adv-x="1184" 
d="M1165 1049l-168 -181q99 -138 99 -346q0 -255 -142 -403q-138 -144 -368 -144q-193 0 -318 103l-145 -160l-82 78l149 164q-102 137 -102 340q0 266 151 413q140 136 373 136q185 0 308 -99l161 176zM813 836q-80 73 -215 73q-154 0 -245 -100q-97 -107 -97 -303
q0 -132 49 -223zM930 512q0 134 -47 229l-508 -551q86 -75 221 -75q164 0 250 106q84 103 84 291zM860 1546l-262 -327h-127l223 327h166z" />
    <glyph glyph-name="Scommaaccent" unicode="&#x218;" horiz-adv-x="1018" 
d="M920 362q0 -167 -111 -270q-126 -117 -365 -117q-80 0 -178 25t-145 57v199q67 -60 168 -96q94 -33 178 -33q276 0 276 215q0 93 -70 165q-62 63 -231 159q-177 100 -248 192t-71 217q0 165 121 272q127 111 334 111q193 0 282 -51v-188q-113 88 -291 88q-126 0 -200 -64
q-70 -60 -70 -153q0 -100 64 -167q54 -56 215 -145q176 -97 254 -187q88 -101 88 -229zM631 -119l-166 -260h-123l117 260h172z" />
    <glyph glyph-name="scommaaccent" unicode="&#x219;" horiz-adv-x="799" 
d="M725 274q0 -126 -94 -209q-103 -90 -281 -90q-146 0 -254 62v176q120 -98 266 -98q195 0 195 143q0 60 -43 99t-168 94q-129 56 -183 116q-65 71 -65 185q0 128 101 212.5t260 84.5q122 0 219 -48v-165q-101 73 -232 73q-82 0 -131 -40t-49 -103q0 -68 41 -106
q37 -35 154 -85q131 -55 189 -113q75 -74 75 -188zM508 -119l-166 -260h-123l117 260h172z" />
    <glyph glyph-name="uni037E" unicode="&#x37e;" horiz-adv-x="444" 
d="M338 936q0 -46 -33.5 -79.5t-79.5 -33.5t-78 33.5t-32 79.5t32 78.5t78 32.5q47 0 80 -32.5t33 -78.5zM315 227l-159 -491h-117l117 491h159z" />
    <glyph glyph-name="tonos" unicode="&#x384;" horiz-adv-x="559" 
d="M475 1537l-176 -363h-93l101 363h168z" />
    <glyph glyph-name="dieresistonos" unicode="&#x385;" horiz-adv-x="559" 
d="M645 1322q0 -41 -29 -69.5t-71 -28.5q-40 0 -68.5 28t-28.5 70t28.5 70t68.5 28q41 0 70.5 -28.5t29.5 -69.5zM471 1551l-176 -363h-93l101 363h168zM160 1322q0 -41 -29 -69.5t-71 -28.5q-40 0 -69.5 28t-29.5 70t29.5 70t69.5 28q41 0 70.5 -28.5t29.5 -69.5z" />
    <glyph glyph-name="Alphatonos" unicode="&#x386;" horiz-adv-x="1321" 
d="M314 1434l-175 -363h-94l102 363h167zM1299 0h-187l-150 402h-609l-145 -402h-186l549 1434h175zM902 558l-221 605q-10 26 -23 97h-4q-9 -60 -23 -97l-221 -605h492z" />
    <glyph glyph-name="anoteleia" unicode="&#x387;" horiz-adv-x="444" 
d="M336 623q0 -47 -33 -80t-80 -33q-46 0 -78 33t-32 80q0 46 32 79t78 33q47 0 80 -33t33 -79z" />
    <glyph glyph-name="Epsilontonos" unicode="&#x388;" horiz-adv-x="1168" 
d="M1078 0h-760v1434h727v-156h-558v-484h517v-156h-517v-482h591v-156zM210 1434l-176 -363h-93l101 363h168z" />
    <glyph glyph-name="Etatonos" unicode="&#x389;" horiz-adv-x="1585" 
d="M1396 0h-170v651h-739v-651h-169v1434h169v-627h739v627h170v-1434zM210 1434l-176 -363h-93l101 363h168z" />
    <glyph glyph-name="Iotatonos" unicode="&#x38a;" horiz-adv-x="675" 
d="M210 1434l-176 -363h-93l101 363h168zM487 0h-169v1434h169v-1434z" />
    <glyph glyph-name="Omicrontonos" unicode="&#x38c;" horiz-adv-x="1640" 
d="M1552 735q0 -353 -186.5 -556.5t-497.5 -203.5q-308 0 -492 206q-179 199 -179 519q0 337 178 542q188 216 518 216q296 0 477.5 -200t181.5 -523zM222 1434l-175 -363h-94l102 363h167zM1375 713q0 287 -136 444q-131 149 -359 149q-226 0 -366 -163t-140 -427
q0 -268 139 -430q136 -159 356 -159q232 0 367 149q139 155 139 437z" />
    <glyph glyph-name="Upsilontonos" unicode="&#x38e;" horiz-adv-x="1366" 
d="M1353 1434l-475 -904v-530h-168v526l-460 908h191l321 -648q13 -33 35 -87h3q9 30 39 87l334 648h180zM191 1434l-175 -363h-94l102 363h167z" />
    <glyph glyph-name="Omegatonos" unicode="&#x38f;" horiz-adv-x="1692" 
d="M1594 0h-519v147q345 256 345 633q0 257 -152 400q-136 129 -345 129q-213 0 -351 -130q-153 -144 -153 -398q0 -378 346 -634v-147h-519v147h347q-348 236 -348 638q0 320 195 502q183 171 478 171q299 0 481 -168q195 -181 195 -504q0 -402 -347 -639h347v-147z
M222 1434l-175 -363h-94l102 363h167z" />
    <glyph glyph-name="iotadieresistonos" unicode="&#x390;" horiz-adv-x="546" 
d="M520 11q-61 -23 -121 -23q-232 0 -232 277v759h162v-754q0 -138 100 -138q43 0 91 19v-140zM605 1322q0 -41 -29 -69.5t-71 -28.5q-40 0 -68.5 28t-28.5 70t28.5 70t68.5 28q41 0 70.5 -28.5t29.5 -69.5zM431 1551l-176 -363h-93l101 363h168zM120 1322q0 -41 -29 -69.5
t-71 -28.5q-40 0 -69.5 28t-29.5 70t29.5 70t69.5 28q41 0 70.5 -28.5t29.5 -69.5z" />
    <glyph glyph-name="Alpha" unicode="&#x391;" horiz-adv-x="1321" 
d="M1299 0h-187l-150 402h-609l-145 -402h-186l549 1434h175zM902 558l-221 605q-10 26 -23 97h-4q-9 -60 -23 -97l-221 -605h492z" />
    <glyph glyph-name="Beta" unicode="&#x392;" horiz-adv-x="1174" 
d="M1071 412q0 -187 -137 -302q-130 -110 -327 -110h-418v1434h408q194 0 303 -97q100 -90 100 -231q0 -121 -66 -211t-183 -129v-4q146 -17 232 -107q88 -93 88 -243zM823 1074q0 214 -275 214h-191v-471h172q137 0 215.5 68t78.5 189zM894 414q0 124 -91 190.5t-255 66.5
h-191v-522h228q152 0 234 77q75 70 75 188z" />
    <glyph glyph-name="Gamma" unicode="&#x393;" horiz-adv-x="967" 
d="M933 1278h-576v-1278h-168v1434h744v-156z" />
    <glyph glyph-name="Delta" unicode="&#x394;" horiz-adv-x="1320" 
d="M1271 0h-1219v76l520 1358h172l527 -1359v-75zM1062 150l-365 987q-18 49 -41 123h-4q-7 -45 -37 -126l-360 -984h807z" />
    <glyph glyph-name="Epsilon" unicode="&#x395;" horiz-adv-x="1038" 
d="M948 0h-759v1434h727v-156h-559v-484h518v-156h-518v-482h591v-156z" />
    <glyph glyph-name="Zeta" unicode="&#x396;" horiz-adv-x="1167" 
d="M1125 1394l-837 -1238h817v-156h-1072v48l831 1230h-765v156h1026v-40z" />
    <glyph glyph-name="Eta" unicode="&#x397;" horiz-adv-x="1455" 
d="M1267 0h-170v651h-740v-651h-168v1434h168v-627h740v627h170v-1434z" />
    <glyph glyph-name="Theta" unicode="&#x398;" horiz-adv-x="1544" 
d="M1450 735q0 -353 -187 -556.5t-497 -203.5q-308 0 -493 206q-179 199 -179 519q0 337 179 542q188 216 518 216q296 0 477.5 -200t181.5 -523zM1273 713q0 287 -136 444q-131 149 -360 149q-225 0 -365.5 -163t-140.5 -427q0 -268 138 -428.5t357 -160.5q233 0 367 149
q140 155 140 437zM1041 637h-538v156h538v-156z" />
    <glyph glyph-name="Iota" unicode="&#x399;" horiz-adv-x="546" 
d="M357 0h-168v1434h168v-1434z" />
    <glyph glyph-name="Kappa" unicode="&#x39a;" horiz-adv-x="1188" 
d="M1186 0h-234l-555 655q-19 23 -36 51h-4v-706h-168v1434h168v-675h4q14 22 37 49l535 626h209l-613 -688z" />
    <glyph glyph-name="Lambda" unicode="&#x39b;" horiz-adv-x="1288" 
d="M1263 0h-186l-405 1150q-15 44 -28 119h-4q-10 -64 -30 -120l-406 -1149h-180l526 1434h190z" />
    <glyph glyph-name="Mu" unicode="&#x39c;" horiz-adv-x="1838" 
d="M1649 0h-166v963q0 127 13 277h-4q-23 -95 -42 -138l-489 -1102h-83l-489 1093q-20 46 -42 148h-5q8 -79 8 -280v-961h-161v1434h221l440 -999q48 -109 65 -173h6q40 108 71 177l447 995h210v-1434z" />
    <glyph glyph-name="Nu" unicode="&#x39d;" horiz-adv-x="1531" 
d="M1345 0h-207l-738 1143q-31 49 -47 89h-5q9 -52 9 -196v-1036h-168v1434h217l719 -1125q38 -60 56 -95h4q-8 51 -8 210v1010h168v-1434z" />
    <glyph glyph-name="Xi" unicode="&#x39e;" horiz-adv-x="1044" 
d="M960 1275h-875v159h875v-159zM821 648h-598v153h598v-153zM987 0h-929v162h929v-162z" />
    <glyph glyph-name="Omicron" unicode="&#x39f;" horiz-adv-x="1544" 
d="M1450 735q0 -353 -187 -556.5t-497 -203.5q-308 0 -493 206q-179 199 -179 519q0 337 179 542q188 216 518 216q296 0 477.5 -200t181.5 -523zM1273 713q0 287 -136 444q-131 149 -360 149q-225 0 -365.5 -163t-140.5 -427q0 -268 138 -428.5t357 -160.5q233 0 367 149
q140 155 140 437z" />
    <glyph glyph-name="Pi" unicode="&#x3a0;" horiz-adv-x="1460" 
d="M1276 0h-170v1278h-749v-1278h-168v1434h1087v-1434z" />
    <glyph glyph-name="Rho" unicode="&#x3a1;" horiz-adv-x="1149" 
d="M1065 1006q0 -195 -129 -323q-143 -140 -392 -140h-187v-543h-168v1434h393q233 0 358 -113t125 -315zM890 997q0 285 -338 285h-195v-588h176q174 0 265.5 79.5t91.5 223.5z" />
    <glyph glyph-name="Sigma" unicode="&#x3a3;" horiz-adv-x="1057" 
d="M1008 0h-962v78l465 661l-423 604v91h858v-155h-613l378 -536l-418 -596h715v-147z" />
    <glyph glyph-name="Tau" unicode="&#x3a4;" horiz-adv-x="1075" 
d="M1036 1278h-414v-1278h-168v1278h-414v156h996v-156z" />
    <glyph glyph-name="Upsilon" unicode="&#x3a5;" horiz-adv-x="1135" 
d="M1121 1434l-474 -904v-530h-169v526l-460 908h191l321 -648q13 -33 35 -87h3q10 30 39 87l334 648h180z" />
    <glyph glyph-name="Phi" unicode="&#x3a6;" horiz-adv-x="1544" 
d="M1447 754q0 -253 -155 -410t-398 -157h-44v-202h-156v202h-43q-253 0 -406 162q-149 157 -149 404t152.5 395.5t404.5 148.5h41v150h156v-150h41q256 0 408 -152q148 -149 148 -391zM1283 752q0 183 -104 293.5t-288 110.5h-41v-821h44q183 0 286 110.5t103 306.5z
M694 335v821h-41q-179 0 -286 -108.5t-107 -296.5q0 -200 108 -310q104 -106 283 -106h43z" />
    <glyph glyph-name="Chi" unicode="&#x3a7;" horiz-adv-x="1210" 
d="M1186 1434l-460 -710l449 -724h-206l-321 548q-16 27 -33 72h-4q-19 -42 -37 -70l-345 -550h-205l486 720l-439 714h208l290 -505q32 -54 51 -99h4q15 33 54 104l316 500h192z" />
    <glyph glyph-name="Psi" unicode="&#x3a8;" horiz-adv-x="1589" 
d="M872 1434v-896h57q362 0 362 366v530h163v-531q0 -218 -134 -360q-145 -153 -391 -153h-57v-390h-155v390h-57q-247 0 -391 153q-133 142 -133 360v531h162v-530q0 -366 362 -366h57v896h155z" />
    <glyph glyph-name="Omega" unicode="&#x3a9;" horiz-adv-x="1546" 
d="M1449 0h-519v147q345 256 345 633q0 257 -152 400q-136 129 -345 129q-214 0 -352 -130q-152 -144 -152 -398q0 -378 346 -634v-147h-520v147h348q-348 236 -348 638q0 320 195 502q183 171 478 171q298 0 481 -168q195 -181 195 -504q0 -402 -348 -639h348v-147z" />
    <glyph glyph-name="Iotadieresis" unicode="&#x3aa;" horiz-adv-x="545" 
d="M356 0h-168v1434h168v-1434zM569 1665q0 -41 -28.5 -69.5t-70.5 -28.5q-40 0 -69 28t-29 70t28 70t68 28q42 0 71.5 -28.5t29.5 -69.5zM184 1665q0 -41 -28.5 -69.5t-70.5 -28.5q-40 0 -70 28t-30 70t29 70t69 28q42 0 71.5 -28.5t29.5 -69.5z" />
    <glyph glyph-name="Upsilondieresis" unicode="&#x3ab;" horiz-adv-x="1133" 
d="M1120 1434l-473 -904v-530h-168v526l-461 908h191l321 -648q14 -33 35 -88h2q11 34 39 88l336 648h178zM858 1664q0 -41 -28.5 -69.5t-70.5 -28.5q-40 0 -69 28t-29 70t28 70t68 28q42 0 71.5 -28.5t29.5 -69.5zM473 1664q0 -41 -28.5 -69.5t-70.5 -28.5q-40 0 -70 28
t-30 70t29 70t69 28q42 0 71.5 -28.5t29.5 -69.5z" />
    <glyph glyph-name="alphatonos" unicode="&#x3ac;" horiz-adv-x="1258" 
d="M1208 1024q-68 -166 -203 -504q16 -63 156 -520h-170l-77 313h-4q-76 -177 -167 -255q-96 -83 -237 -83q-182 0 -296 135q-118 139 -118 372q0 256 128.5 411.5t344.5 155.5q267 0 372 -320h4q42 131 95 295h172zM865 520q-48 194 -111 285q-74 107 -189 107
q-134 0 -219.5 -116t-85.5 -304q0 -174 79 -277q74 -95 187 -95q193 0 322 354zM788 1537l-176 -363h-93l101 363h168z" />
    <glyph glyph-name="epsilontonos" unicode="&#x3ad;" horiz-adv-x="897" 
d="M827 22q-130 -47 -325 -47q-201 0 -313 87q-107 81 -107 215q0 95 72 164q70 66 181 86v4q-80 17 -142 75q-72 67 -72 155q0 143 117 219q104 69 274 69q143 0 270 -45v-165q-133 71 -280 71q-215 0 -215 -147q0 -78 86 -124q79 -43 201 -43q73 0 118 4v-146
q-73 4 -140 4q-304 0 -304 -178q0 -75 70.5 -120.5t198.5 -45.5q167 0 310 73v-165zM697 1537l-176 -363h-93l101 363h168z" />
    <glyph glyph-name="etatonos" unicode="&#x3ae;" horiz-adv-x="1178" 
d="M1015 -404h-165v976q0 327 -236 327q-125 0 -205 -89t-80 -223v-587h-162v694q0 234 -37 330h168q28 -74 28 -173h4q111 198 341 198q344 0 344 -419v-1034zM799 1537l-176 -363h-93l101 363h168z" />
    <glyph glyph-name="iotatonos" unicode="&#x3af;" horiz-adv-x="546" 
d="M520 11q-61 -23 -121 -23q-232 0 -232 277v759h162v-754q0 -138 100 -138q43 0 91 19v-140zM444 1537l-176 -363h-93l101 363h168z" />
    <glyph glyph-name="upsilondieresistonos" unicode="&#x3b0;" horiz-adv-x="1181" 
d="M1062 465q0 -227 -129 -360q-125 -130 -328 -130q-210 0 -331 118q-124 121 -124 340v591h162v-563q0 -176 86 -264q76 -77 207 -77q132 0 209 82q83 89 83 256q0 299 -147 566h183q129 -251 129 -559zM908 1322q0 -41 -29 -69.5t-71 -28.5q-40 0 -68.5 28t-28.5 70
t28.5 70t68.5 28q41 0 70.5 -28.5t29.5 -69.5zM734 1551l-176 -363h-93l101 363h168zM423 1322q0 -41 -29 -69.5t-71 -28.5q-40 0 -69.5 28t-29.5 70t29.5 70t69.5 28q41 0 70.5 -28.5t29.5 -69.5z" />
    <glyph glyph-name="alpha" unicode="&#x3b1;" horiz-adv-x="1258" 
d="M1208 1024q-68 -166 -203 -504q16 -63 156 -520h-170l-77 313h-4q-76 -177 -167 -255q-96 -83 -237 -83q-182 0 -296 135q-118 139 -118 372q0 256 128.5 411.5t344.5 155.5q267 0 372 -320h4q42 131 95 295h172zM865 520q-48 194 -111 285q-74 107 -189 107
q-134 0 -219.5 -116t-85.5 -304q0 -174 79 -277q74 -95 187 -95q193 0 322 354z" />
    <glyph glyph-name="beta" unicode="&#x3b2;" horiz-adv-x="1122" 
d="M1045 409q0 -194 -120 -313t-319 -119q-153 0 -277 71v-443h-162v1510q0 190 108.5 303.5t296.5 113.5q166 0 264.5 -93t98.5 -248q0 -128 -74.5 -228.5t-191.5 -139.5v-4q181 -29 278.5 -136.5t97.5 -273.5zM877 398q0 303 -380 343v131q118 19 194 99q79 84 79 200
q0 221 -208 221q-107 0 -168 -72q-65 -76 -65 -222v-894q139 -87 274 -87q127 0 200.5 72t73.5 209z" />
    <glyph glyph-name="gamma" unicode="&#x3b3;" horiz-adv-x="1063" 
d="M998 939q0 -199 -66 -385q-53 -146 -162 -320q-102 -151 -203 -303q0 -320 -4 -412h-175q15 169 15 495q-39 209 -156 510q-121 308 -242 500h188q249 -444 343 -881h4q138 203 203 352q88 203 88 399q0 62 -10 130h171q6 -53 6 -85z" />
    <glyph glyph-name="delta" unicode="&#x3b4;" horiz-adv-x="1196" 
d="M1107 470q0 -221 -137 -356q-141 -139 -381 -139q-223 0 -364 139q-136 134 -136 337q0 357 406 502q-120 79 -165 126q-88 92 -88 204t105 181.5t281 69.5q168 0 330 -78v-183q-169 121 -330 121q-217 0 -217 -127q0 -66 87 -134q27 -21 212 -136q182 -113 272 -216
q125 -143 125 -311zM939 457q0 212 -316 414q-368 -118 -368 -412q0 -159 100 -254q96 -90 247 -90t242 89q95 93 95 253z" />
    <glyph glyph-name="epsilon" unicode="&#x3b5;" horiz-adv-x="897" 
d="M827 22q-130 -47 -325 -47q-201 0 -313 87q-107 81 -107 215q0 95 72 164q70 66 181 86v4q-80 17 -142 75q-72 67 -72 155q0 143 117 219q104 69 274 69q143 0 270 -45v-165q-133 71 -280 71q-215 0 -215 -147q0 -78 86 -124q79 -43 201 -43q73 0 118 4v-146
q-73 4 -140 4q-304 0 -304 -178q0 -75 70.5 -120.5t198.5 -45.5q167 0 310 73v-165z" />
    <glyph glyph-name="zeta" unicode="&#x3b6;" horiz-adv-x="905" 
d="M895 -128q0 -100 -70 -181h-179q98 79 98 156q0 59 -47 91q-59 38 -216 58q-405 50 -405 455q0 434 596 928v4h-436v133h603v-135q-593 -517 -593 -927q0 -250 288 -297q168 -28 247 -76q114 -70 114 -209z" />
    <glyph glyph-name="eta" unicode="&#x3b7;" horiz-adv-x="1178" 
d="M1015 -404h-165v976q0 327 -236 327q-125 0 -205 -89t-80 -223v-587h-162v694q0 234 -37 330h168q28 -74 28 -173h4q111 198 341 198q344 0 344 -419v-1034z" />
    <glyph glyph-name="theta" unicode="&#x3b8;" horiz-adv-x="1185" 
d="M1096 767q0 -379 -135.5 -585.5t-378.5 -206.5q-230 0 -360 198q-133 202 -133 569q0 376 131 581q136 211 393 211q483 0 483 -767zM925 836q-18 558 -328 558q-151 0 -242 -153q-88 -149 -98 -405h668zM927 703h-672q6 -289 99 -442q89 -146 241 -146t238 148
q89 153 94 440z" />
    <glyph glyph-name="iota" unicode="&#x3b9;" horiz-adv-x="546" 
d="M520 11q-61 -23 -121 -23q-232 0 -232 277v759h162v-754q0 -138 100 -138q43 0 91 19v-140z" />
    <glyph glyph-name="kappa" unicode="&#x3ba;" horiz-adv-x="1073" 
d="M1043 0h-203l-370 501l-141 -153v-348h-162v1024h162v-498l275 312q87 99 135 138q75 62 141 62q71 0 105 -7v-145q-29 8 -79 8q-67 0 -210 -157l-115 -124z" />
    <glyph glyph-name="lambda" unicode="&#x3bb;" horiz-adv-x="1020" 
d="M991 0h-176l-280 827l-356 -827h-181l463 1017l-67 196q-53 154 -157 154q-54 0 -120 -18v157q63 11 129 11q120 0 190 -71q63 -65 123 -233z" />
    <glyph glyph-name="mu" unicode="&#x3bc;" horiz-adv-x="1182" 
d="M1047 0h-168q-24 72 -24 168h-4q-86 -191 -280 -191q-167 0 -238 123h-4v-495h-162v1419h162v-626q0 -132 75 -208q68 -69 175 -69q117 0 191 80q80 87 80 237v586h165v-759q0 -188 32 -265z" />
    <glyph glyph-name="nu" unicode="&#x3bd;" horiz-adv-x="1077" 
d="M967 838q0 -378 -383 -838h-164l-409 1024h182l335 -868q272 343 272 658q0 122 -34 210h177q24 -70 24 -186z" />
    <glyph glyph-name="xi" unicode="&#x3be;" horiz-adv-x="911" 
d="M886 -130q0 -105 -70 -186h-179q97 78 97 161q0 56 -42 88q-59 45 -213 64q-193 24 -297.5 132t-104.5 281q0 144 96 255q100 113 271 156q-175 75 -175 252q0 112 86 196q78 76 204 110v4q0 -3 -338 0v134l570 -1v-136q-141 -23 -242 -100q-113 -86 -113 -198
q0 -164 169 -222q16 0 72.5 2.5t78.5 3.5v-150q-7 0 -51 2q-36 1 -62 1q-155 0 -270 -75q-127 -85 -127 -221q0 -219 284 -264q175 -28 256 -86q100 -70 100 -203z" />
    <glyph glyph-name="omicron" unicode="&#x3bf;" horiz-adv-x="1185" 
d="M1096 517q0 -245 -138 -393.5t-372 -148.5q-231 0 -366 147q-131 143 -131 377q0 267 149 413q139 137 372 137q229 0 357.5 -141.5t128.5 -390.5zM928 511q0 196 -90 299q-85 99 -241 99q-153 0 -244 -101q-96 -107 -96 -303q0 -183 92.5 -286.5t248.5 -103.5
q161 0 247 105q83 103 83 291z" />
    <glyph glyph-name="pi" unicode="&#x3c0;" horiz-adv-x="1284" 
d="M1199 891h-222v-619q0 -140 101 -140q34 0 88 19v-140q-61 -23 -122 -23q-232 0 -232 277v626h-389v-611q0 -192 -32 -280h-167q36 87 36 280v611q-123 -3 -243 -89v150q75 72 245 72h937v-133z" />
    <glyph glyph-name="rho" unicode="&#x3c1;" horiz-adv-x="1192" 
d="M1103 529q0 -261 -123 -407.5t-345 -146.5q-192 0 -308 124h-4v-494h-162v921q0 228 98 363q117 160 354 160q228 0 364 -155q126 -145 126 -365zM935 521q0 167 -89 277.5t-230 110.5q-152 0 -227 -115q-66 -100 -66 -270v-265q39 -60 117 -100q83 -44 176 -44
q319 0 319 406z" />
    <glyph glyph-name="sigma1" unicode="&#x3c2;" horiz-adv-x="943" 
d="M897 -130q0 -105 -70 -186h-181q98 76 98 164q0 63 -49 94q-56 37 -206 56q-194 25 -298 140t-104 293q0 286 158 456q150 162 381 162q127 0 228 -52v-167q-114 79 -243 79q-153 0 -253.5 -131t-100.5 -328q0 -191 166 -258q154 -42 308 -83q166 -62 166 -239z" />
    <glyph glyph-name="sigma" unicode="&#x3c3;" horiz-adv-x="1160" 
d="M1145 893h-255q141 -183 141 -404q0 -220 -118 -362q-127 -152 -346 -152q-220 0 -350 148q-128 144 -128 379q0 522 521 522h535v-131zM863 500q0 221 -121 393h-118q-366 0 -366 -398q0 -170 83.5 -275t225.5 -105q140 0 220 108q76 104 76 277z" />
    <glyph glyph-name="tau" unicode="&#x3c4;" horiz-adv-x="997" 
d="M965 893h-392v-620q0 -141 117 -141q54 0 107 19v-140q-65 -23 -137 -23q-249 0 -249 288v617h-141q-114 0 -236 -88v147q76 72 240 72h691v-131z" />
    <glyph glyph-name="upsilon" unicode="&#x3c5;" horiz-adv-x="1181" 
d="M1062 465q0 -227 -129 -360q-125 -130 -328 -130q-210 0 -331 118q-124 121 -124 340v591h162v-563q0 -176 86 -264q76 -77 207 -77q132 0 209 82q83 89 83 256q0 299 -147 566h183q129 -251 129 -559z" />
    <glyph glyph-name="phi" unicode="&#x3c6;" horiz-adv-x="1416" 
d="M1327 499q0 -232 -139 -376q-141 -148 -375 -148q-3 -3 -33 0v-456h-148v456q-25 -3 -28 0q-233 0 -373 140q-143 144 -143 395q0 160 63 303q55 127 146 211h194q-235 -216 -235 -518q0 -193 106 -298q94 -93 239 -93h31v662q0 272 273 272q184 0 300 -143
q122 -150 122 -407zM1159 508q0 190 -81 302q-71 99 -168 99q-130 0 -130 -130v-664h33q149 0 244 100q102 108 102 293z" />
    <glyph glyph-name="chi" unicode="&#x3c7;" horiz-adv-x="1102" 
d="M1095 -469q-44 -10 -93 -10q-90 0 -155 67t-140 239l-158 364l-352 -658h-185l454 824l-174 393q-65 149 -137 149q-49 0 -89 -16v156q34 10 107 10q88 0 141 -47t103 -165l140 -331l274 518h184l-375 -681l236 -523q67 -149 140 -149q37 0 79 14v-154z" />
    <glyph glyph-name="psi" unicode="&#x3c8;" horiz-adv-x="1536" 
d="M1384 557q0 -275 -150 -433q-142 -147 -368 -147h-24v-458h-148v458h-25q-228 0 -368 147q-149 157 -149 432v468h166v-468q0 -202 107 -323q99 -112 244 -112h25v1210h148v-1210h24q145 0 244 111q108 121 108 324v468h166v-467z" />
    <glyph glyph-name="omega" unicode="&#x3c9;" horiz-adv-x="1655" 
d="M1536 456q0 -222 -104 -349q-107 -130 -300 -130q-202 0 -303 191h-4q-103 -191 -305 -191q-192 0 -298 131q-103 127 -103 348q0 258 126 568h183q-143 -319 -143 -574q0 -162 64 -248q61 -81 167 -81q230 0 230 346v283h164v-283q0 -346 229 -346q107 0 168.5 85
t61.5 244q0 255 -142 574h182q127 -311 127 -568z" />
    <glyph glyph-name="iotadieresis" unicode="&#x3ca;" horiz-adv-x="546" 
d="M520 11q-61 -23 -121 -23q-232 0 -232 277v759h162v-754q0 -138 100 -138q43 0 91 19v-140zM564 1299q0 -41 -28.5 -69.5t-70.5 -28.5q-40 0 -69 28t-29 70t28 70t68 28q42 0 71.5 -28.5t29.5 -69.5zM179 1299q0 -41 -28.5 -69.5t-70.5 -28.5q-40 0 -70 28t-30 70t29 70
t69 28q42 0 71.5 -28.5t29.5 -69.5z" />
    <glyph glyph-name="upsilondieresis" unicode="&#x3cb;" horiz-adv-x="1181" 
d="M1062 465q0 -227 -129 -360q-125 -130 -328 -130q-210 0 -331 118q-124 121 -124 340v591h162v-563q0 -176 86 -264q76 -77 207 -77q132 0 209 82q83 89 83 256q0 299 -147 566h183q129 -251 129 -559zM879 1299q0 -41 -28.5 -69.5t-70.5 -28.5q-40 0 -69 28t-29 70
t28 70t68 28q42 0 71.5 -28.5t29.5 -69.5zM494 1299q0 -41 -28.5 -69.5t-70.5 -28.5q-40 0 -70 28t-30 70t29 70t69 28q42 0 71.5 -28.5t29.5 -69.5z" />
    <glyph glyph-name="omicrontonos" unicode="&#x3cc;" horiz-adv-x="1184" 
d="M1096 516q0 -245 -138 -393t-372 -148q-231 0 -366 148q-132 143 -132 377q0 267 150 413q139 136 372 136q229 0 357.5 -142t128.5 -391zM928 510q0 197 -89 300q-86 99 -241 99q-153 0 -245 -100q-97 -107 -97 -303q0 -184 93 -287.5t249 -103.5q162 0 247 105
q83 102 83 290zM763 1537l-176 -363h-93l101 363h168z" />
    <glyph glyph-name="upsilontonos" unicode="&#x3cd;" horiz-adv-x="1181" 
d="M1062 465q0 -227 -129 -360q-125 -130 -328 -130q-210 0 -331 118q-124 121 -124 340v591h162v-563q0 -176 86 -264q76 -77 207 -77q132 0 209 82q83 89 83 256q0 299 -147 566h183q129 -251 129 -559zM745 1537l-176 -363h-93l101 363h168z" />
    <glyph glyph-name="omegatonos" unicode="&#x3ce;" horiz-adv-x="1655" 
d="M1536 456q0 -222 -104 -349q-107 -130 -300 -130q-202 0 -303 191h-4q-103 -191 -305 -191q-192 0 -298 131q-103 127 -103 348q0 258 126 568h183q-143 -319 -143 -574q0 -162 64 -248q61 -81 167 -81q230 0 230 346v283h164v-283q0 -346 229 -346q107 0 168.5 85
t61.5 244q0 255 -142 574h182q127 -311 127 -568zM980 1537l-176 -363h-93l101 363h168z" />
    <glyph glyph-name="afii10023" unicode="&#x401;" horiz-adv-x="1036" 
d="M948 0h-760v1434h727v-152h-559v-477h518v-152h-518v-501h592v-152zM848 1665q0 -41 -28.5 -69.5t-70.5 -28.5q-40 0 -69 28t-29 70t28 70t68 28q42 0 71.5 -28.5t29.5 -69.5zM463 1665q0 -41 -28.5 -69.5t-70.5 -28.5q-40 0 -70 28t-30 70t29 70t69 28q42 0 71.5 -28.5
t29.5 -69.5z" />
    <glyph glyph-name="afii10051" unicode="&#x402;" horiz-adv-x="1433" 
d="M1311 387q0 -192 -100 -298.5t-281 -106.5q-92 0 -164 24v154q65 -33 160 -33q97 0 155 69.5t58 188.5q0 139 -85 216t-237 77h-250v-678h-168v1282h-358v152h995v-152h-469v-457h254q218 0 348 -106q142 -116 142 -332z" />
    <glyph glyph-name="afii10052" unicode="&#x403;" horiz-adv-x="952" 
d="M932 1282h-576v-1282h-168v1434h744v-152zM860 1894l-262 -327h-127l223 327h166z" />
    <glyph glyph-name="afii10053" unicode="&#x404;" horiz-adv-x="1265" 
d="M1157 59q-158 -84 -393 -84q-305 0 -489 200q-181 196 -181 515q0 354 202 565q193 203 497 203q213 0 364 -59v-178q-164 86 -366 86q-214 0 -351 -135q-141 -137 -166 -381h633v-152h-635q16 -243 158 -381q135 -131 346 -131q225 0 381 96v-164z" />
    <glyph glyph-name="afii10054" unicode="&#x405;" horiz-adv-x="1018" 
d="M920 362q0 -167 -111 -270q-126 -117 -365 -117q-80 0 -178 25t-145 57v199q67 -60 168 -96q94 -33 178 -33q276 0 276 215q0 93 -70 165q-62 63 -231 159q-177 100 -248 192t-71 217q0 165 121 272q127 111 334 111q193 0 282 -51v-188q-113 88 -291 88q-126 0 -200 -64
q-70 -60 -70 -153q0 -100 64 -167q54 -56 215 -145q176 -97 254 -187q88 -101 88 -229z" />
    <glyph glyph-name="afii10056" unicode="&#x407;" horiz-adv-x="545" 
d="M356 0h-168v1434h168v-1434zM569 1665q0 -41 -28.5 -69.5t-70.5 -28.5q-40 0 -69 28t-29 70t28 70t68 28q42 0 71.5 -28.5t29.5 -69.5zM184 1665q0 -41 -28.5 -69.5t-70.5 -28.5q-40 0 -70 28t-30 70t29 70t69 28q42 0 71.5 -28.5t29.5 -69.5z" />
    <glyph glyph-name="afii10058" unicode="&#x409;" horiz-adv-x="2009" 
d="M1911 428q0 -198 -124.5 -313t-340.5 -115h-426v1282h-383q-81 -558 -168 -967q-37 -173 -109 -253q-76 -85 -206 -85q-86 0 -138 25v164q51 -39 121 -39q69 0 111 75q36 65 71 226q83 372 177 1006h692v-609h272q205 0 322 -94q129 -103 129 -303zM1735 418
q0 256 -312 256h-235v-522h235q155 0 236 75q76 70 76 191z" />
    <glyph glyph-name="afii10059" unicode="&#x40a;" horiz-adv-x="2015" 
d="M1917 428q0 -198 -124.5 -313t-340.5 -115h-426v672h-670v-672h-168v1434h168v-611h670v611h168v-609h272q205 0 322 -94q129 -103 129 -303zM1741 418q0 256 -311 256h-236v-522h236q154 0 235 75q76 70 76 191z" />
    <glyph glyph-name="afii10060" unicode="&#x40b;" horiz-adv-x="1480" 
d="M1354 0h-168v389q0 295 -285 295h-278v-684h-168v1282h-414v152h995v-152h-413v-451h280q451 0 451 -442v-389z" />
    <glyph glyph-name="afii10061" unicode="&#x40c;" horiz-adv-x="1188" 
d="M1186 0h-234l-555 655q-22 27 -37 52h-4v-707h-168v1434h168v-674h4q14 21 37 49l537 625h209l-615 -689zM922 1894l-262 -327h-127l223 327h166z" />
    <glyph glyph-name="afii10062" unicode="&#x40e;" horiz-adv-x="1154" 
d="M971 1819q-11 -115 -106.5 -183.5t-233.5 -68.5q-140 0 -232 67q-95 70 -100 185h141q12 -156 193 -156q77 0 131 41t63 115h144zM1165 1434l-446 -1002q-113 -253 -195 -345q-98 -112 -241 -112q-104 0 -179 31v170q85 -51 166 -51q87 0 153 79q52 61 114 204l-486 1026
h191l344 -766q13 -35 37 -93h2q14 30 41 89l319 770h180z" />
    <glyph glyph-name="afii10145" unicode="&#x40f;" horiz-adv-x="1451" 
d="M1266 0h-469v-324h-144v324h-465v1434h168v-1282h742v1282h168v-1434z" />
    <glyph glyph-name="afii10017" unicode="&#x410;" horiz-adv-x="1321" 
d="M1298 0h-186l-151 401h-609l-143 -401h-186l548 1434h174zM905 553l-225 610q-9 25 -23 97h-4q-9 -61 -22 -97l-223 -610h497z" />
    <glyph glyph-name="afii10018" unicode="&#x411;" horiz-adv-x="1171" 
d="M1079 428q0 -198 -124.5 -313t-340.5 -115h-426v1434h766v-152h-598v-457h273q204 0 322 -94q128 -103 128 -303zM903 418q0 256 -311 256h-236v-522h236q154 0 236 75q75 70 75 191z" />
    <glyph glyph-name="afii10019" unicode="&#x412;" horiz-adv-x="1174" 
d="M1071 412q0 -188 -137 -302q-131 -110 -328 -110h-418v1434h408q194 0 303 -98q100 -89 100 -230q0 -121 -65.5 -211t-181.5 -129v-4q146 -17 231 -107q88 -94 88 -243zM823 1073q0 209 -274 209h-193v-463h172q138 0 216.5 66.5t78.5 187.5zM895 414q0 254 -346 254
h-193v-516h228q153 0 235 75q76 69 76 187z" />
    <glyph glyph-name="afii10020" unicode="&#x413;" horiz-adv-x="952" 
d="M932 1282h-576v-1282h-168v1434h744v-152z" />
    <glyph glyph-name="afii10021" unicode="&#x414;" horiz-adv-x="1430" 
d="M1362 -324h-145v324h-1047v-324h-145v476h131q134 244 226 592q96 360 107 690h680v-1282h193v-476zM1001 152v1130h-364q-10 -234 -93 -555q-86 -333 -206 -575h663z" />
    <glyph glyph-name="afii10022" unicode="&#x415;" horiz-adv-x="1036" 
d="M948 0h-760v1434h727v-152h-559v-477h518v-152h-518v-501h592v-152z" />
    <glyph glyph-name="afii10024" unicode="&#x416;" horiz-adv-x="1775" 
d="M1794 0h-225l-561 655q-23 26 -37 52h-4v-707h-160v707h-4q-15 -26 -37 -52l-561 -655h-228l658 743l-612 691h204l539 -621q23 -27 37 -49h4v670h160v-670h4q14 22 37 49l538 621h205l-612 -691z" />
    <glyph glyph-name="afii10025" unicode="&#x417;" horiz-adv-x="1107" 
d="M993 406q0 -194 -134 -310q-141 -121 -388 -121q-243 0 -375 84v183q168 -123 381 -123q157 0 249 77q89 75 89 199q0 277 -373 277h-149v139h137q162 0 249 72q85 69 85 192q0 107 -70 171q-73 67 -202 67q-180 0 -351 -113v170q159 88 365 88q208 0 327 -103
q111 -96 111 -249q0 -279 -272 -352v-4q151 -17 238 -114q83 -93 83 -230z" />
    <glyph glyph-name="afii10026" unicode="&#x418;" horiz-adv-x="1534" 
d="M1343 0h-167v1036q0 139 10 197h-6q-19 -49 -45 -90l-740 -1143h-207v1434h168v-1010q0 -162 -8 -211h4q22 44 56 96l720 1125h215v-1434z" />
    <glyph glyph-name="afii10027" unicode="&#x419;" horiz-adv-x="1534" 
d="M1110 1819q-10 -115 -108 -185q-94 -67 -232 -67q-140 0 -232 67q-95 70 -100 185h142q11 -156 192 -156q78 0 131.5 41t63.5 115h143zM1343 0h-167v1036q0 139 10 197h-6q-19 -49 -45 -90l-740 -1143h-207v1434h168v-1010q0 -162 -8 -211h4q22 44 56 96l720 1125h215
v-1434z" />
    <glyph glyph-name="afii10028" unicode="&#x41a;" horiz-adv-x="1188" 
d="M1186 0h-234l-555 655q-22 27 -37 52h-4v-707h-168v1434h168v-674h4q14 21 37 49l537 625h209l-615 -689z" />
    <glyph glyph-name="afii10029" unicode="&#x41b;" horiz-adv-x="1378" 
d="M1188 0h-168v1282h-383q-91 -627 -162 -942q-82 -363 -332 -363q-70 0 -127 21v158q50 -29 113 -29q76 0 120 80q35 62 70 221q79 347 177 1006h692v-1434z" />
    <glyph glyph-name="afii10030" unicode="&#x41c;" horiz-adv-x="1839" 
d="M1651 0h-168v963q0 114 14 278h-4q-24 -96 -43 -139l-489 -1102h-82l-490 1094q-21 46 -43 147h-4q8 -86 8 -280v-961h-162v1434h222l440 -1000q50 -113 65 -172h7q43 118 69 176l449 996h211v-1434z" />
    <glyph glyph-name="afii10031" unicode="&#x41d;" horiz-adv-x="1454" 
d="M1266 0h-168v653h-742v-653h-168v1434h168v-629h742v629h168v-1434z" />
    <glyph glyph-name="afii10032" unicode="&#x41e;" horiz-adv-x="1544" 
d="M1450 735q0 -352 -188 -558q-185 -202 -496 -202q-308 0 -493 206q-179 200 -179 519q0 338 179 543q187 215 518 215q296 0 477.5 -200t181.5 -523zM1274 713q0 287 -136 444q-131 150 -360 150q-225 0 -366.5 -164t-141.5 -428q0 -268 140 -430q136 -158 356 -158
q232 0 367 149q141 155 141 437z" />
    <glyph glyph-name="afii10033" unicode="&#x41f;" horiz-adv-x="1451" 
d="M1266 0h-168v1284h-742v-1284h-168v1434h1078v-1434z" />
    <glyph glyph-name="afii10034" unicode="&#x420;" horiz-adv-x="1147" 
d="M1065 1006q0 -195 -129 -323q-142 -140 -391 -140h-189v-543h-168v1434h394q232 0 359 -114q124 -112 124 -314zM889 997q0 285 -336 285h-197v-588h176q174 0 266 81q91 78 91 222z" />
    <glyph glyph-name="afii10035" unicode="&#x421;" horiz-adv-x="1268" 
d="M1163 59q-158 -84 -395 -84q-308 0 -493 200q-181 196 -181 515q0 351 216 565q205 203 515 203q205 0 338 -59v-178q-153 86 -340 86q-242 0 -394 -159q-159 -166 -159 -448q0 -268 150 -424q142 -149 371 -149q216 0 372 96v-164z" />
    <glyph glyph-name="afii10036" unicode="&#x422;" horiz-adv-x="1073" 
d="M1036 1282h-413v-1282h-168v1282h-414v152h995v-152z" />
    <glyph glyph-name="afii10037" unicode="&#x423;" horiz-adv-x="1153" 
d="M1165 1434l-446 -1002q-113 -253 -195 -345q-98 -112 -241 -112q-104 0 -179 31v170q85 -51 166 -51q87 0 153 79q52 61 114 204l-486 1026h191l344 -766q13 -35 37 -93h2q14 30 41 89l319 770h180z" />
    <glyph glyph-name="afii10038" unicode="&#x424;" horiz-adv-x="1488" 
d="M1409 754q0 -233 -150 -395q-158 -171 -403 -171h-27v-188h-155v188h-27q-245 0 -402 170q-151 162 -151 396q0 224 150 378q157 162 405 162h25v181h155v-181h25q249 0 405 -159q150 -153 150 -381zM1233 752q0 180 -103 290.5t-276 110.5h-25v-817h27q171 0 274 113.5
t103 302.5zM674 336v817h-25q-171 0 -275 -112t-104 -289q0 -191 103 -303.5t274 -112.5h27z" />
    <glyph glyph-name="afii10039" unicode="&#x425;" horiz-adv-x="1208" 
d="M1178 0h-205l-330 549q-15 25 -33 72h-4q-10 -24 -35 -72l-340 -549h-204l479 721l-443 713h207l293 -504q30 -52 51 -101h4q32 66 56 105l305 500h192l-450 -711z" />
    <glyph glyph-name="afii10040" unicode="&#x426;" horiz-adv-x="1520" 
d="M1458 -324h-145v324h-1125v1434h168v-1282h742v1282h168v-1282h192v-476z" />
    <glyph glyph-name="afii10041" unicode="&#x427;" horiz-adv-x="1354" 
d="M1153 0h-168v645q-229 -121 -426 -121q-186 0 -289.5 96.5t-103.5 274.5v539h168v-531q0 -231 246 -231q179 0 405 110v652h168v-1434z" />
    <glyph glyph-name="afii10042" unicode="&#x428;" horiz-adv-x="1943" 
d="M1753 0h-1565v1434h168v-1282h531v1282h168v-1282h530v1282h168v-1434z" />
    <glyph glyph-name="afii10043" unicode="&#x429;" horiz-adv-x="2007" 
d="M1946 -324h-146v324h-1612v1434h168v-1282h531v1282h168v-1282h530v1282h168v-1282h193v-476z" />
    <glyph glyph-name="afii10044" unicode="&#x42a;" horiz-adv-x="1445" 
d="M1346 428q0 -198 -124.5 -313t-340.5 -115h-426v1280h-414v154h582v-609h272q204 0 322 -94q129 -103 129 -303zM1169 418q0 256 -311 256h-235v-522h235q154 0 236 75q75 70 75 191z" />
    <glyph glyph-name="afii10045" unicode="&#x42b;" horiz-adv-x="1604" 
d="M1415 0h-168v1434h168v-1434zM1079 428q0 -198 -124.5 -313t-340.5 -115h-426v1434h168v-609h273q204 0 322 -94q128 -103 128 -303zM903 418q0 256 -311 256h-236v-522h236q154 0 236 75q75 70 75 191z" />
    <glyph glyph-name="afii10046" unicode="&#x42c;" horiz-adv-x="1180" 
d="M1079 428q0 -198 -124.5 -313t-340.5 -115h-426v1434h168v-609h273q204 0 322 -94q128 -103 128 -303zM903 418q0 256 -311 256h-236v-522h236q154 0 236 75q75 70 75 191z" />
    <glyph glyph-name="afii10047" unicode="&#x42d;" horiz-adv-x="1262" 
d="M1167 696q0 -319 -183 -518q-186 -203 -490 -203q-231 0 -390 84v164q157 -96 381 -96q211 0 346 131q142 138 158 381h-635v152h633q-25 240 -160.5 378t-353.5 138q-202 0 -369 -86v176q154 61 369 61q304 0 495 -200q199 -208 199 -562z" />
    <glyph glyph-name="afii10048" unicode="&#x42e;" horiz-adv-x="2086" 
d="M1991 735q0 -354 -177.5 -557t-482.5 -203q-289 0 -463 195q-170 190 -178 500h-334v-670h-168v1434h168v-613h340q30 294 200 463q175 174 460 174q290 0 464 -200q171 -198 171 -523zM1815 713q0 289 -125 444q-121 150 -340 150q-224 0 -354 -154t-130 -432
q0 -285 123.5 -439.5t341.5 -154.5q227 0 354 149q130 153 130 437z" />
    <glyph glyph-name="afii10049" unicode="&#x42f;" horiz-adv-x="1180" 
d="M991 0h-168v610h-186q-71 0 -119 -46q-40 -38 -84 -132l-203 -432h-200l241 479q71 140 166 174v4q-138 32 -222 123q-93 100 -93 250q0 167 111 279q124 125 341 125h416v-1434zM823 762v520h-233q-147 0 -223 -76q-66 -66 -66 -178q0 -127 84 -198q80 -68 211 -68h227z
" />
    <glyph glyph-name="afii10065" unicode="&#x430;" horiz-adv-x="1034" 
d="M891 0h-164v160h-4q-107 -185 -315 -185q-156 0 -243 86q-83 81 -83 211q0 287 338 334l307 43q0 260 -211 260q-185 0 -334 -125v168q47 34 145 64q109 33 203 33q361 0 361 -383v-666zM727 416v102l-248 -35q-135 -19 -185 -67q-44 -42 -44 -131q0 -74 52.5 -122
t143.5 -48q124 0 202.5 86t78.5 215z" />
    <glyph glyph-name="afii10066" unicode="&#x431;" horiz-adv-x="1169" 
d="M1079 496q0 -232 -126 -374q-130 -147 -351 -147q-234 0 -362.5 167t-128.5 481q0 615 299 757q77 37 214 65q92 17 183 34q96 21 143 49v-154q-41 -30 -133 -45l-172 -28q-120 -23 -178 -54q-157 -84 -184 -420h4q48 76 136 123q95 51 206 51q202 0 325 -136
q125 -139 125 -369zM911 479q0 179 -87.5 281t-231.5 102q-206 0 -311 -196q0 -4 -1 -38q-1 -35 -1 -57q0 -199 79 -322q87 -134 248 -134q139 0 224 104q81 102 81 260z" />
    <glyph glyph-name="afii10067" unicode="&#x432;" horiz-adv-x="1077" 
d="M977 295q0 -125 -96.5 -210t-239.5 -85h-475v1024h446q155 0 242 -69q84 -68 84 -181q0 -199 -197 -242q236 -30 236 -237zM774 750q0 135 -178 135h-266v-289h245q199 0 199 154zM813 301q0 156 -223 156h-260v-318h284q199 0 199 162z" />
    <glyph glyph-name="afii10068" unicode="&#x433;" horiz-adv-x="785" 
d="M735 885h-405v-885h-164v1024h569v-139z" />
    <glyph glyph-name="afii10069" unicode="&#x434;" horiz-adv-x="1120" 
d="M1059 -270h-139v270h-762v-270h-140v409h91q262 378 266 885h532v-885h152v-409zM743 139v746h-227q-27 -414 -233 -746h460z" />
    <glyph glyph-name="afii10070" unicode="&#x435;" horiz-adv-x="1055" 
d="M981 471h-723q4 -172 92 -264t242 -92q173 0 317 112v-153q-134 -99 -356 -99q-210 0 -333 132q-132 140 -132 401q0 247 143 399q134 142 328 142q208 0 318 -139q104 -130 104 -353v-86zM813 610q-2 140 -66 218q-67 81 -190 81q-116 0 -197 -82.5t-100 -216.5h553z
" />
    <glyph glyph-name="afii10072" unicode="&#x436;" horiz-adv-x="1528" 
d="M1526 0h-221l-459 506h-4v-506h-156v506h-4l-459 -506h-219l508 528l-477 496h209l438 -479h4v479h156v-479h4l438 479h211l-479 -496z" />
    <glyph glyph-name="afii10073" unicode="&#x437;" horiz-adv-x="913" 
d="M827 281q0 -135 -105 -217q-114 -89 -319 -89q-211 0 -323 54v161q134 -75 313 -75q271 0 271 172q0 170 -297 170h-101v139h96q261 0 261 162q0 69 -60 110t-164 41q-149 0 -299 -75v153q170 62 312 62q374 0 374 -275q0 -89 -55.5 -153.5t-155.5 -85.5v-5
q114 -9 183 -77t69 -172z" />
    <glyph glyph-name="afii10074" unicode="&#x438;" horiz-adv-x="1190" 
d="M1024 0h-147v817q-22 -43 -68 -121l-473 -696h-170v1024h149v-807q13 29 54 98l485 709h170v-1024z" />
    <glyph glyph-name="afii10075" unicode="&#x439;" horiz-adv-x="1190" 
d="M942 1470q-10 -115 -108 -184q-94 -67 -232 -67q-140 0 -232 67q-95 70 -100 184h142q12 -155 192 -155q78 0 130 40q56 42 65 115h143zM1024 0h-147v817q-22 -43 -68 -121l-473 -696h-170v1024h149v-807q13 29 54 98l485 709h170v-1024z" />
    <glyph glyph-name="afii10076" unicode="&#x43a;" horiz-adv-x="1014" 
d="M1012 0h-228l-450 489h-4v-489h-164v1024h164v-467h4l430 467h217l-477 -496z" />
    <glyph glyph-name="afii10077" unicode="&#x43b;" horiz-adv-x="1079" 
d="M913 0h-163v885h-238q-35 -415 -107 -617q-101 -282 -301 -282q-51 0 -88 14v141q35 -18 76 -18q220 0 283 901h538v-1024z" />
    <glyph glyph-name="afii10078" unicode="&#x43c;" horiz-adv-x="1438" 
d="M1272 0h-162v844q-22 -65 -68 -189l-256 -655h-147l-264 655q-21 52 -68 189v-844h-141v1024h209l270 -668q24 -60 74 -202q24 67 74 198l262 672h217v-1024z" />
    <glyph glyph-name="afii10079" unicode="&#x43d;" horiz-adv-x="1182" 
d="M1016 0h-164v465h-522v-465h-164v1024h164v-420h522v420h164v-1024z" />
    <glyph glyph-name="afii10080" unicode="&#x43e;" horiz-adv-x="1184" 
d="M1096 516q0 -245 -138 -393t-372 -148q-231 0 -366 148q-132 143 -132 377q0 267 150 413q139 136 372 136q229 0 357.5 -142t128.5 -391zM928 510q0 197 -89 300q-86 99 -241 99q-153 0 -245 -100q-97 -107 -97 -303q0 -184 93 -287.5t249 -103.5q162 0 247 105
q83 102 83 290z" />
    <glyph glyph-name="afii10081" unicode="&#x43f;" horiz-adv-x="1182" 
d="M1016 0h-164v885h-522v-885h-164v1024h850v-1024z" />
    <glyph glyph-name="afii10082" unicode="&#x440;" horiz-adv-x="1196" 
d="M1108 543q0 -251 -119 -405q-126 -163 -348 -163q-198 0 -307 172h-4v-618h-164v1495h164v-180h4q121 205 354 205q204 0 316 -148q104 -136 104 -358zM940 545q0 170 -79 267t-214 97q-148 0 -237 -106q-80 -98 -80 -242v-143q0 -124 79 -211q84 -92 214 -92
q146 0 230 110q87 114 87 320z" />
    <glyph glyph-name="afii10083" unicode="&#x441;" horiz-adv-x="938" 
d="M858 829q-114 80 -244 80q-156 0 -255 -109q-103 -112 -103 -298q0 -179 94.5 -283t253.5 -104q134 0 252 88v-156q-118 -72 -281 -72q-220 0 -355 146q-132 142 -132 366q0 252 144.5 407t388.5 155q134 0 237 -52v-168z" />
    <glyph glyph-name="afii10084" unicode="&#x442;" horiz-adv-x="840" 
d="M809 885h-307v-885h-164v885h-307v139h778v-139z" />
    <glyph glyph-name="afii10085" unicode="&#x443;" horiz-adv-x="991" 
d="M981 1024l-471 -1188q-126 -317 -354 -317q-64 0 -107 12v147q53 -18 96 -18q125 0 187 147l82 195l-400 1022h183l276 -788q8 -22 21 -78h6q5 24 20 75l291 791h170z" />
    <glyph glyph-name="afii10086" unicode="&#x444;" horiz-adv-x="1389" 
d="M1300 500q0 -234 -137 -379.5t-360 -145.5h-35v-456h-147v456h-33q-224 0 -362 146t-138 379q0 251 143 402q139 147 365 147h25v409h147v-409h23q228 0 367 -146q142 -150 142 -403zM1133 506q0 195 -97 303q-91 100 -241 100h-27v-794h23q153 0 246 102q96 106 96 289z
M621 115v794h-25q-151 0 -242 -100q-98 -108 -98 -303q0 -183 97 -289q93 -102 247 -102h21z" />
    <glyph glyph-name="afii10087" unicode="&#x445;" horiz-adv-x="940" 
d="M913 1024l-344 -518l338 -506h-190l-201 332q-16 26 -45 78h-4q-4 -9 -47 -78l-205 -332h-188l348 502l-334 522h190l199 -350q18 -31 43 -80h4q3 5 47 80l209 350h180z" />
    <glyph glyph-name="afii10088" unicode="&#x446;" horiz-adv-x="1229" 
d="M1167 -270h-141v270h-860v1024h164v-885h522v885h164v-885h151v-409z" />
    <glyph glyph-name="afii10089" unicode="&#x447;" horiz-adv-x="1157" 
d="M991 0h-164v412q-179 -99 -331 -99q-344 0 -344 365v346h163v-338q0 -225 195 -225q148 0 317 86v477h164v-1024z" />
    <glyph glyph-name="afii10090" unicode="&#x448;" horiz-adv-x="1638" 
d="M1473 0h-1307v1024h164v-885h407v885h164v-885h408v885h164v-1024z" />
    <glyph glyph-name="afii10091" unicode="&#x449;" horiz-adv-x="1688" 
d="M1626 -270h-143v270h-1317v1024h164v-885h407v885h164v-885h408v885h164v-885h153v-409z" />
    <glyph glyph-name="afii10092" unicode="&#x44a;" horiz-adv-x="1201" 
d="M1124 319q0 -153 -102 -241q-92 -78 -225 -78h-455v885h-311v139h475v-393h276q150 0 241 -74q101 -82 101 -238zM956 319q0 170 -206 170h-244v-350h246q204 0 204 180z" />
    <glyph glyph-name="afii10093" unicode="&#x44b;" horiz-adv-x="1453" 
d="M1286 0h-162v1024h162v-1024zM948 319q0 -153 -103 -241q-91 -78 -224 -78h-455v1024h164v-393h276q150 0 241 -74q101 -82 101 -238zM780 319q0 170 -207 170h-243v-350h245q205 0 205 180z" />
    <glyph glyph-name="afii10094" unicode="&#x44c;" horiz-adv-x="1024" 
d="M948 319q0 -153 -103 -241q-91 -78 -224 -78h-455v1024h164v-393h276q150 0 241 -74q101 -82 101 -238zM780 319q0 170 -207 170h-243v-350h245q205 0 205 180z" />
    <glyph glyph-name="afii10095" unicode="&#x44d;" horiz-adv-x="938" 
d="M850 504q0 -239 -133.5 -384t-362.5 -145q-157 0 -272 70v156q115 -86 266 -86q147 0 237 92q87 90 95 239h-436v140h436q-13 152 -101 237.5t-237 85.5q-143 0 -248 -78v162q106 56 250 56q249 0 380 -149q126 -142 126 -396z" />
    <glyph glyph-name="afii10096" unicode="&#x44e;" horiz-adv-x="1657" 
d="M1567 516q0 -247 -128 -392q-130 -149 -358 -149q-216 0 -337 136q-114 128 -123 354h-291v-465h-164v1024h164v-420h293q25 213 157 331q128 114 326 114q223 0 342 -141t119 -392zM1399 510q0 399 -307 399q-306 0 -306 -399q0 -395 310 -395q303 0 303 395z" />
    <glyph glyph-name="afii10097" unicode="&#x44f;" horiz-adv-x="1022" 
d="M858 0h-164v424h-137q-100 0 -180 -160l-133 -264h-191l172 315q61 112 146 146q-129 17 -193 100q-53 69 -53 168q0 131 90 210q99 85 285 85h358v-1024zM694 561v324h-194q-207 0 -207 -158q0 -166 201 -166h200z" />
    <glyph glyph-name="afii10071" unicode="&#x451;" horiz-adv-x="1055" 
d="M981 471h-723q4 -172 92 -264t242 -92q173 0 317 112v-153q-134 -99 -356 -99q-210 0 -333 132q-132 140 -132 401q0 247 143 399q134 142 328 142q208 0 318 -139q104 -130 104 -353v-86zM813 610q-2 140 -66 218q-67 81 -190 81q-116 0 -197 -82.5t-100 -216.5h553z
M836 1317q0 -41 -28.5 -69.5t-70.5 -28.5q-40 0 -69 28t-29 70t28 70t68 28q42 0 71.5 -28.5t29.5 -69.5zM451 1317q0 -41 -28.5 -69.5t-70.5 -28.5q-40 0 -70 28t-30 70t29 70t69 28q42 0 71.5 -28.5t29.5 -69.5z" />
    <glyph glyph-name="afii10099" unicode="&#x452;" horiz-adv-x="1173" 
d="M1044 389q0 -400 -98 -591q-108 -212 -354 -212q-58 0 -123 25v158q67 -37 125 -37q159 0 226 177q59 153 59 478q0 496 -263 496q-116 0 -198 -94t-82 -232v-557h-164v1202h-133v133h133v181h164v-181h334v-133h-334v-375h4q105 195 315 195q389 0 389 -633z" />
    <glyph glyph-name="afii10100" unicode="&#x453;" horiz-adv-x="785" 
d="M735 885h-405v-885h-164v1024h569v-139zM672 1546l-262 -327h-127l223 327h166z" />
    <glyph glyph-name="afii10101" unicode="&#x454;" horiz-adv-x="938" 
d="M856 45q-115 -70 -274 -70q-229 0 -361.5 142.5t-132.5 380.5q0 258 138 404.5t380 146.5q137 0 240 -52v-161q-100 73 -246 73q-151 0 -243 -91q-86 -86 -99 -232h436v-140h-438q7 -143 88 -233q90 -98 246 -98q145 0 266 90v-160z" />
    <glyph glyph-name="afii10102" unicode="&#x455;" horiz-adv-x="799" 
d="M725 274q0 -126 -94 -209q-103 -90 -281 -90q-146 0 -254 62v176q120 -98 266 -98q195 0 195 143q0 60 -43 99t-168 94q-129 56 -183 116q-65 71 -65 185q0 128 101 212.5t260 84.5q122 0 219 -48v-165q-101 73 -232 73q-82 0 -131 -40t-49 -103q0 -68 41 -106
q37 -35 154 -85q131 -55 189 -113q75 -74 75 -188z" />
    <glyph glyph-name="afii10104" unicode="&#x457;" horiz-adv-x="496" 
d="M330 0h-164v1024h164v-1024zM539 1317q0 -41 -28.5 -69.5t-70.5 -28.5q-40 0 -69 28t-29 70t28 70t68 28q42 0 71.5 -28.5t29.5 -69.5zM154 1317q0 -41 -28.5 -69.5t-70.5 -28.5q-40 0 -70 28t-30 70t29 70t69 28q42 0 71.5 -28.5t29.5 -69.5z" />
    <glyph glyph-name="afii10106" unicode="&#x459;" horiz-adv-x="1618" 
d="M1532 319q0 -153 -103 -241q-91 -78 -225 -78h-454v885h-238q-35 -415 -107 -617q-101 -282 -301 -282q-51 0 -88 14v141q35 -18 76 -18q220 0 283 901h538v-393h277q150 0 240 -74q102 -82 102 -238zM1364 319q0 170 -207 170h-244v-350h246q205 0 205 180z" />
    <glyph glyph-name="afii10107" unicode="&#x45a;" horiz-adv-x="1643" 
d="M1556 313q0 -153 -102 -238q-91 -75 -225 -75h-455v477h-444v-477h-164v1024h164v-406h444v406h164v-406h276q151 0 241 -70q101 -80 101 -235zM1389 313q0 164 -207 164h-244v-338h246q205 0 205 174z" />
    <glyph glyph-name="afii10108" unicode="&#x45b;" horiz-adv-x="1163" 
d="M1022 0h-164v563q0 322 -235 322q-121 0 -202 -89q-85 -94 -85 -247v-549h-164v1202h-133v133h133v181h164v-181h334v-133h-334v-373h4q119 195 336 195q346 0 346 -418v-606z" />
    <glyph glyph-name="afii10109" unicode="&#x45c;" horiz-adv-x="1014" 
d="M1012 0h-228l-450 489h-4v-489h-164v1024h164v-467h4l430 467h217l-477 -496zM811 1546l-262 -327h-127l223 327h166z" />
    <glyph glyph-name="afii10110" unicode="&#x45e;" horiz-adv-x="992" 
d="M846 1470q-11 -115 -106.5 -183t-233.5 -68q-140 0 -232 67q-95 70 -100 184h141q12 -155 193 -155q77 0 131 41t63 114h144zM981 1024l-471 -1188q-126 -317 -354 -317q-64 0 -107 12v147q53 -18 96 -18q125 0 187 147l82 195l-400 1022h183l276 -788q8 -22 21 -78h6
q5 24 20 75l291 791h170z" />
    <glyph glyph-name="afii10193" unicode="&#x45f;" horiz-adv-x="1182" 
d="M1016 0h-354v-311h-142v311h-354v1024h164v-885h522v885h164v-1024z" />
    <glyph glyph-name="afii10050" unicode="&#x490;" horiz-adv-x="961" 
d="M932 1282h-576v-1282h-168v1434h600v264h144v-416z" />
    <glyph glyph-name="afii10098" unicode="&#x491;" horiz-adv-x="799" 
d="M741 885h-411v-885h-164v1024h432v270h143v-409z" />
    <glyph glyph-name="Wgrave" unicode="&#x1e80;" horiz-adv-x="1913" 
d="M1888 1434l-405 -1434h-197l-295 1049q-19 68 -22 145h-4q-7 -74 -27 -143l-297 -1051h-195l-419 1434h184l305 -1100q19 -68 25 -144h4q4 53 30 144l318 1100h162l303 -1108q16 -61 24 -133h4q4 51 27 137l293 1104h182zM1143 1567h-127l-262 327h168z" />
    <glyph glyph-name="wgrave" unicode="&#x1e81;" horiz-adv-x="1481" 
d="M1456 1024l-307 -1024h-170l-211 733q-11 40 -16 94h-4q-3 -35 -21 -92l-229 -735h-164l-309 1024h172l211 -770q10 -40 14 -92h8q3 43 19 94l235 768h150l213 -772q10 -37 14 -92h8q2 39 16 92l209 772h162zM907 1219h-127l-262 327h168z" />
    <glyph glyph-name="Wacute" unicode="&#x1e82;" horiz-adv-x="1913" 
d="M1888 1434l-405 -1434h-197l-295 1049q-19 68 -22 145h-4q-7 -74 -27 -143l-297 -1051h-195l-419 1434h184l305 -1100q19 -68 25 -144h4q4 53 30 144l318 1100h162l303 -1108q16 -61 24 -133h4q4 51 27 137l293 1104h182zM1186 1894l-262 -327h-127l223 327h166z" />
    <glyph glyph-name="wacute" unicode="&#x1e83;" horiz-adv-x="1481" 
d="M1456 1024l-307 -1024h-170l-211 733q-11 40 -16 94h-4q-3 -35 -21 -92l-229 -735h-164l-309 1024h172l211 -770q10 -40 14 -92h8q3 43 19 94l235 768h150l213 -772q10 -37 14 -92h8q2 39 16 92l209 772h162zM976 1546l-262 -327h-127l223 327h166z" />
    <glyph glyph-name="Wdieresis" unicode="&#x1e84;" horiz-adv-x="1913" 
d="M1888 1434l-405 -1434h-197l-295 1049q-19 68 -22 145h-4q-7 -74 -27 -143l-297 -1051h-195l-419 1434h184l305 -1100q19 -68 25 -144h4q4 53 30 144l318 1100h162l303 -1108q16 -61 24 -133h4q4 51 27 137l293 1104h182zM1248 1665q0 -41 -28.5 -69.5t-70.5 -28.5
q-40 0 -69 28t-29 70t28 70t68 28q42 0 71.5 -28.5t29.5 -69.5zM863 1665q0 -41 -28.5 -69.5t-70.5 -28.5q-40 0 -70 28t-30 70t29 70t69 28q42 0 71.5 -28.5t29.5 -69.5z" />
    <glyph glyph-name="wdieresis" unicode="&#x1e85;" horiz-adv-x="1481" 
d="M1456 1024l-307 -1024h-170l-211 733q-11 40 -16 94h-4q-3 -35 -21 -92l-229 -735h-164l-309 1024h172l211 -770q10 -40 14 -92h8q3 43 19 94l235 768h150l213 -772q10 -37 14 -92h8q2 39 16 92l209 772h162zM1032 1317q0 -41 -28.5 -69.5t-70.5 -28.5q-40 0 -69 28
t-29 70t28 70t68 28q42 0 71.5 -28.5t29.5 -69.5zM647 1317q0 -41 -28.5 -69.5t-70.5 -28.5q-40 0 -70 28t-30 70t29 70t69 28q42 0 71.5 -28.5t29.5 -69.5z" />
    <glyph glyph-name="Ygrave" unicode="&#x1ef2;" horiz-adv-x="1133" 
d="M1120 1434l-473 -904v-530h-168v526l-461 908h191l321 -648q14 -33 35 -88h2q11 34 39 88l336 648h178zM717 1567h-127l-262 327h168z" />
    <glyph glyph-name="ygrave" unicode="&#x1ef3;" horiz-adv-x="991" 
d="M981 1024l-471 -1188q-126 -317 -354 -317q-64 0 -107 12v147q53 -18 96 -18q125 0 187 147l82 195l-400 1022h183l276 -788q8 -22 21 -78h6q5 24 20 75l291 791h170zM629 1219h-127l-262 327h168z" />
    <glyph glyph-name="afii00208" unicode="&#x2015;" horiz-adv-x="2048" 
d="M2048 506h-2048v129h2048v-129z" />
    <glyph glyph-name="underscoredbl" unicode="&#x2017;" horiz-adv-x="850" 
d="M0 -297v119h850v-119h-850zM0 -578v119h850v-119h-850z" />
    <glyph glyph-name="quotereversed" unicode="&#x201b;" horiz-adv-x="469" 
d="M369 1012h-117l-141 446h147z" />
    <glyph glyph-name="minute" unicode="&#x2032;" horiz-adv-x="469" 
d="M351 1434l-106 -447h-114l84 447h136z" />
    <glyph glyph-name="second" unicode="&#x2033;" horiz-adv-x="772" 
d="M643 1434l-105 -447h-116l86 447h135zM361 1434l-105 -447h-115l85 447h135z" />
    <glyph glyph-name="exclamdbl" unicode="&#x203c;" horiz-adv-x="983" 
d="M375 1434l-19 -1031h-135l-18 1031h172zM401 92q0 -46 -32 -78t-78 -32t-78.5 32t-32.5 78t32.5 78.5t78.5 32.5t78 -32.5t32 -78.5zM776 1434l-18 -1031h-135l-19 1031h172zM803 92q0 -46 -32.5 -78t-78.5 -32t-78 32t-32 78t32 78.5t78 32.5t78.5 -32.5t32.5 -78.5z
" />
    <glyph glyph-name="uni203E" unicode="&#x203e;" horiz-adv-x="850" 
d="M850 1397h-850v119h850v-119z" />
    <glyph glyph-name="nsuperior" unicode="&#x207f;" horiz-adv-x="803" 
d="M239 717h-129v719h129v-115h4q26 59 84 97t125 38q120 0 187 -74t67 -206v-459h-129v450q0 176 -152 176q-73 0 -129 -58q-57 -61 -57 -146v-422z" />
    <glyph glyph-name="franc" unicode="&#x20a3;" horiz-adv-x="999" 
d="M600 279h-244v-279h-168v279h-159v155h159v1000h727v-152h-559v-496h518v-151h-518v-201h244v-155z" />
    <glyph glyph-name="lira" unicode="&#x20a4;" horiz-adv-x="1104" 
d="M784 487h-297v-8q0 -243 -192 -340h711v-139h-900v135q218 70 218 314v38h-197v142h197v135h-197v141h197v125q0 188 109 308t282 120q118 0 213 -41v-155q-99 57 -211 57q-230 0 -230 -307v-107h297v-141h-297v-135h297v-142z" />
    <glyph glyph-name="peseta" unicode="&#x20a7;" horiz-adv-x="2273" 
d="M963 1006q0 -199 -119 -323q-133 -140 -381 -140h-107v-543h-168v1434h312q463 0 463 -428zM786 997q0 285 -315 285h-115v-588h95q335 0 335 303zM1552 10q-58 -33 -153 -33q-133 0 -192 74q-56 71 -56 228v462h-156v140h156v249l164 54v-303h237v-140h-237v-434
q0 -190 131 -190q59 0 106 33v-140zM2208 244q0 -125 -87.5 -197t-242.5 -72q-162 0 -258 62v176q121 -98 258 -98q162 0 162 112q0 84 -109 132q-100 41 -201 82q-108 61 -108 177q0 124 98 197q92 70 232 70q130 0 209 -47v-160q-96 67 -211 67q-71 0 -115.5 -30.5
t-44.5 -81.5q0 -58 108 -102q171 -69 201 -89q109 -72 109 -198z" />
    <glyph glyph-name="afii61248" unicode="&#x2105;" horiz-adv-x="1646" 
d="M1550 428q0 -177 -106 -309q-113 -139 -280 -139q-157 0 -233 103q-58 79 -58 193q0 172 107 303q115 142 287 142q130 0 206.5 -77.5t76.5 -215.5zM1525 1434l-1228 -1434h-147l1228 1434h147zM1415 423q0 186 -150 186q-114 0 -189 -112q-68 -101 -68 -222
q0 -184 159 -184q107 0 179 103q69 97 69 229zM759 1271q-79 68 -169 68q-126 0 -200 -113q-61 -94 -61 -210q0 -188 154 -188q86 0 204 79l-30 -141q-103 -53 -195 -53q-132 0 -203 85q-67 79 -67 209q0 184 107 311q116 136 305 136q114 0 187 -50z" />
    <glyph glyph-name="afii61289" unicode="&#x2113;" horiz-adv-x="662" 
d="M14 422l179 235v455q0 172 34 254q53 125 199 125q102 0 162 -70q57 -66 57 -170q0 -189 -285 -585v-416q0 -89 14.5 -110t43.5 -21q47 0 198 106v-162q-112 -88 -225 -88q-198 0 -198 242v225l-80 -98zM360 899q102 175 124 235t22 117q0 119 -76 119q-31 0 -45 -24
q-25 -44 -25 -220v-227z" />
    <glyph glyph-name="afii61352" unicode="&#x2116;" horiz-adv-x="2297" 
d="M2202 1036q0 -194 -97 -310q-102 -122 -284 -122q-181 0 -279 118q-92 110 -92 300q0 211 103 323q101 109 286 109q178 0 272 -112q91 -109 91 -306zM2171 317h-690v134h690v-134zM1282 0h-209l-674 1137q-32 54 -45 88h-6q8 -46 8 -195v-1030h-168v1434h220l653 -1119
q23 -35 57 -94h4q-8 50 -8 209v1004h168v-1434zM2048 1028q0 291 -217 291q-106 0 -167 -74q-62 -77 -62 -219q0 -287 225 -287q221 0 221 289z" />
    <glyph glyph-name="estimated" unicode="&#x212e;" horiz-adv-x="1229" 
d="M1144 530h-828l1 -370q120 -121 296 -121q255 0 396 246l71 -43q-96 -140 -196 -204q-115 -73 -270 -73q-237 0 -383 161t-146 404q0 245 139 402q146 164 387 164q244 0 387 -163q134 -152 146 -403zM912 604v297q-130 123 -303 123q-174 0 -293 -123v-297h596z" />
    <glyph glyph-name="oneeighth" unicode="&#x215b;" horiz-adv-x="1888" 
d="M1754 224q0 -113 -80 -177q-83 -66 -232 -66q-123 0 -205 60q-87 65 -87 174q0 154 162 233q-132 74 -132 200q0 100 77 161t207 61q117 0 189.5 -58t72.5 -151q0 -134 -135 -212q163 -73 163 -225zM1393 1434l-858 -1434h-142l856 1434h144zM1588 649q0 102 -132 102
q-61 0 -99.5 -28.5t-38.5 -72.5q0 -85 134 -141q136 57 136 140zM1617 216q0 114 -171 173q-159 -54 -159 -169q0 -51 47 -85.5t120 -34.5q71 0 117 34.5t46 81.5zM639 584h-504v112h184v594l-192 -55v125l324 96v-760h188v-112z" />
    <glyph glyph-name="threeeighths" unicode="&#x215c;" horiz-adv-x="1888" 
d="M653 827q0 -116 -82 -189q-86 -75 -229 -75q-135 0 -213 53v142q105 -76 217 -76q81 0 128 39q44 37 44 100q0 142 -219 142h-84v116h80q197 0 197 135q0 119 -144 119q-95 0 -186 -69v139q84 51 213 51q118 0 186 -65q62 -60 62 -150q0 -150 -146 -205v-4
q176 -43 176 -203zM1464 1434l-858 -1434h-141l856 1434h143zM1662 449q164 -73 164 -225q0 -113 -82 -178t-231 -65q-122 0 -204 60q-88 65 -88 174q0 154 163 233q-132 74 -132 200q0 100 76.5 161t207.5 61q117 0 189.5 -58t72.5 -151q0 -134 -136 -212zM1527 751
q-60 0 -98.5 -28.5t-38.5 -72.5q0 -85 134 -141q136 57 136 140q0 102 -133 102zM1518 389q-159 -54 -159 -169q0 -51 47 -85.5t120 -34.5q70 0 116 34.5t46 81.5q0 114 -170 173z" />
    <glyph glyph-name="fiveeighths" unicode="&#x215d;" horiz-adv-x="1903" 
d="M342 563q-124 0 -199 43v146q115 -70 200 -70q86 0 136.5 44.5t50.5 115.5q0 152 -204 152q-29 0 -78 -3q-62 -4 -78 -5v452h458v-124h-329v-200q29 1 58 1q153 0 235 -79q75 -71 75 -188q0 -122 -81 -200q-88 -85 -244 -85zM1466 1434l-858 -1434h-141l856 1434h143z
M1665 449q163 -73 163 -225q0 -113 -82 -178t-230 -65q-123 0 -205 60q-88 65 -88 174q0 154 163 233q-132 74 -132 200q0 100 76.5 161t207.5 61q117 0 189.5 -58t72.5 -151q0 -134 -135 -212zM1529 751q-60 0 -98.5 -28.5t-38.5 -72.5q0 -85 134 -141q136 57 136 140
q0 102 -133 102zM1520 389q-159 -54 -159 -169q0 -51 47 -85.5t120 -34.5q70 0 116 34.5t46 81.5q0 114 -170 173z" />
    <glyph glyph-name="seveneighths" unicode="&#x215e;" horiz-adv-x="1827" 
d="M1331 1434l-858 -1434h-141l856 1434h143zM1529 449q164 -73 164 -225q0 -113 -82 -178t-231 -65q-123 0 -204 60q-88 65 -88 174q0 154 162 233q-131 74 -131 200q0 100 76.5 161t207.5 61q117 0 189.5 -58t72.5 -151q0 -134 -136 -212zM1394 751q-61 0 -99 -28.5
t-38 -72.5q0 -85 134 -141q136 57 136 140q0 102 -133 102zM1385 389q-159 -54 -159 -169q0 -51 47 -85.5t120 -34.5q70 0 116 34.5t46 81.5q0 114 -170 173zM410 584h-146l322 742h-424v118h595v-53z" />
    <glyph glyph-name="H22073" unicode="&#x25a1;" horiz-adv-x="1237" 
d="M145 944h945v-944h-945v944zM221 868v-792h793v792h-793z" />
    <glyph glyph-name="H18543" unicode="&#x25aa;" horiz-adv-x="725" 
d="M594 907v-463h-463v463h463z" />
    <glyph glyph-name="H18551" unicode="&#x25ab;" horiz-adv-x="725" 
d="M594 907v-463h-463v463h463zM518 831h-311v-311h311v311z" />
    <glyph glyph-name="H18533" unicode="&#x25cf;" horiz-adv-x="1237" 
d="M618 1018q116 0 220.5 -59.5t160.5 -159.5q60 -107 60 -221q0 -184 -127.5 -312.5t-310.5 -128.5q-184 0 -313.5 128.5t-129.5 312.5q0 119 60 223t165.5 160.5t214.5 56.5z" />
    <glyph glyph-name="openbullet" unicode="&#x25e6;" horiz-adv-x="725" 
d="M363 928q104 0 177.5 -73.5t73.5 -176.5q0 -105 -73 -178.5t-178 -73.5q-104 0 -177.5 74t-73.5 178q0 102 73.5 176t177.5 74zM362 852q-72 0 -123 -51t-51 -123q0 -74 51 -125t125 -51q73 0 123.5 51t50.5 125q0 73 -51.5 123.5t-124.5 50.5z" />
    <glyph glyph-name="uniF004" unicode="&#xf004;" horiz-adv-x="842" 
d="M565 1395l-166 -260h-123l117 260h172z" />
    <glyph glyph-name="uniF005" unicode="&#xf005;" horiz-adv-x="799" 
d="M508 -119l-166 -260h-123l117 260h172z" />
    <glyph glyph-name="fivesuperior" unicode="&#x2075;" horiz-adv-x="750" 
d="M324 563q-124 0 -198 43v146q114 -70 200 -70q85 0 135.5 44.5t50.5 115.5q0 152 -204 152q-28 0 -77 -3q-63 -4 -78 -5v452h457v-124h-329v-200q29 1 58 1q153 0 236 -79q75 -71 75 -188q0 -122 -81 -200q-89 -85 -245 -85z" />
    <glyph glyph-name="sevensuperior" unicode="&#x2077;" horiz-adv-x="750" 
d="M325 584h-146l322 742h-424v118h595v-53z" />
    <glyph glyph-name="eightsuperior" unicode="&#x2078;" horiz-adv-x="750" 
d="M514 1033q163 -74 163 -226q0 -112 -82 -177.5t-230 -65.5q-123 0 -205 61q-88 65 -88 174q0 153 163 232q-132 75 -132 200q0 101 76.5 162t207.5 61q117 0 189.5 -58t72.5 -152q0 -133 -135 -211zM378 1335q-60 0 -98.5 -28.5t-38.5 -72.5q0 -85 134 -141
q136 56 136 139q0 103 -133 103zM369 973q-159 -54 -159 -169q0 -51 47 -86t120 -35q70 0 116 34.5t46 82.5q0 114 -170 173z" />
    </font>
</defs>
</svg>
