<?xml version="1.0" standalone="no"?>
<!DOCTYPE svg PUBLIC "-//W3C//DTD SVG 1.1//EN" "http://www.w3.org/Graphics/SVG/1.1/DTD/svg11.dtd" >
<svg>
<metadata>
Created by FontForge 20120731 at Thu Jun 12 12:25:14 2014
 By World Wide Web Server
Digitized data (c) 1997-2003 Agfa Monotype Corporation. All rights reserved. SegoeTM is a trademark of The Monotype Corporation.
</metadata>
<defs>
<font id="Segoe-Bold" horiz-adv-x="1102" >
  <font-face 
    font-family="Segoe"
    font-weight="700"
    font-stretch="normal"
    units-per-em="2048"
    panose-1="2 11 8 2 4 2 0 2 2 3"
    ascent="1638"
    descent="-410"
    x-height="1024"
    cap-height="1434"
    bbox="-203 -578 2576 2181"
    underline-thickness="119"
    underline-position="-178"
    unicode-range="U+000D-F006"
  />
<missing-glyph horiz-adv-x="1024" 
d="M128 0v750h768v-750h-768zM256 128h512v494h-512v-494z" />
    <glyph glyph-name=".notdef" horiz-adv-x="1024" 
d="M128 0v750h768v-750h-768zM256 128h512v494h-512v-494z" />
    <glyph glyph-name=".null" unicode="&#xd;" horiz-adv-x="0" 
d="M0 0z" />
    <glyph glyph-name="nonmarkingreturn" horiz-adv-x="565" 
d="M0 0z" />
    <glyph glyph-name="space" unicode=" " horiz-adv-x="565" 
d="M0 0z" />
    <glyph glyph-name="exclam" unicode="!" horiz-adv-x="670" 
d="M500 1434l-39 -988h-256l-37 988h332zM518 143q0 -70 -50 -118t-132 -48q-81 0 -132.5 49t-51.5 117q0 72 52.5 118t131.5 46q80 0 131 -46.5t51 -117.5z" />
    <glyph glyph-name="quotedbl" unicode="&#x22;" horiz-adv-x="1010" 
d="M834 1452l-31 -444h-201l-31 444h263zM438 1452l-30 -442h-203l-29 442h262z" />
    <glyph glyph-name="numbersign" unicode="#" horiz-adv-x="1212" 
d="M1176 1069l-39 -180h-185l-55 -248h207l-45 -180h-199l-78 -346h-200l73 346h-229l-74 -346h-200l71 346h-186l37 180h188l53 248h-202l34 180h205l74 356h205l-74 -356h229l76 356h203l-74 -356h185zM750 889h-232l-55 -248h231z" />
    <glyph glyph-name="dollar" unicode="$" horiz-adv-x="1178" 
d="M1083 399q0 -165 -105 -266.5t-304 -124.5v-217h-146v211q-204 1 -378 92v277q59 -48 176 -88q113 -39 202 -45v364q-197 74 -285 153q-120 109 -120 283q0 154 107 263q112 114 298 133v186h146v-182q212 -11 315 -68v-270q-141 85 -315 104v-379q202 -73 297 -163
q112 -106 112 -263zM528 883v317q-139 -26 -139 -145q0 -104 139 -172zM817 385q0 97 -143 160v-303q143 22 143 143z" />
    <glyph glyph-name="percent" unicode="%" horiz-adv-x="1776" 
d="M1686 367q0 -180 -100.5 -283.5t-262.5 -103.5q-151 0 -244 95q-96 97 -96 263q0 181 100 285t265 104q157 0 246 -91q92 -95 92 -269zM1477 356q0 99 -43 151q-37 44 -95 44q-145 0 -145 -203q0 -192 141 -192q142 0 142 200zM1477 1434l-934 -1434h-244l932 1434h246z
M793 1092q0 -179 -102 -284q-98 -101 -261 -101q-151 0 -244 95q-96 97 -96 263q0 181 100 285t265 104q157 0 247.5 -94t90.5 -268zM584 1083q0 195 -135 195q-146 0 -146 -203q0 -192 139 -192q142 0 142 200z" />
    <glyph glyph-name="ampersand" unicode="&#x26;" horiz-adv-x="1485" 
d="M1483 -2h-361l-108 121q-75 -62 -193 -102q-124 -42 -248 -42q-236 0 -367 115q-122 106 -122 281q0 239 328 411q-146 174 -146 326q0 153 116.5 251.5t303.5 98.5t294 -96q97 -88 97 -219q0 -125 -69 -211.5t-230 -165.5q110 -121 271 -293q75 123 75 297h256
q0 -283 -176 -475zM819 1122q0 58 -43 98q-39 37 -90 37q-66 0 -108 -35q-48 -39 -48 -108q0 -75 121 -209q168 93 168 217zM866 281q-94 101 -323 354q-162 -88 -162 -236q0 -100 73 -157q63 -49 150 -49q156 0 262 88z" />
    <glyph glyph-name="quotesingle" unicode="'" horiz-adv-x="600" 
d="M430 1452l-31 -442h-200l-29 442h260z" />
    <glyph glyph-name="parenleft" unicode="(" horiz-adv-x="756" 
d="M739 -326h-258q-323 357 -323 875q0 500 323 885h256q-303 -403 -303 -885t305 -875z" />
    <glyph glyph-name="parenright" unicode=")" horiz-adv-x="756" 
d="M600 549q0 -516 -326 -875h-256q306 389 306 875q0 481 -306 885h258q324 -385 324 -885z" />
    <glyph glyph-name="asterisk" unicode="*" horiz-adv-x="932" 
d="M864 1053l-274 -37l196 -211l-182 -125l-137 254l-137 -254l-183 125l197 211l-274 37l71 202l252 -108l-43 287h234l-43 -287l250 108z" />
    <glyph glyph-name="plus" unicode="+" horiz-adv-x="1448" 
d="M1212 485h-385v-385h-202v385h-387v203h387v387h202v-387h385v-203z" />
    <glyph glyph-name="comma" unicode="," horiz-adv-x="555" 
d="M432 252l-147 -506h-246l102 506h291z" />
    <glyph glyph-name="hyphen" unicode="-" horiz-adv-x="827" 
d="M690 436h-547v221h547v-221z" />
    <glyph glyph-name="period" unicode="." horiz-adv-x="555" 
d="M463 141q0 -73 -52.5 -119.5t-136.5 -46.5q-79 0 -131 50q-51 47 -51 116q0 73 53.5 118.5t133.5 45.5t132 -46.5t52 -117.5z" />
    <glyph glyph-name="slash" unicode="/" horiz-adv-x="907" 
d="M932 1434l-699 -1672h-282l696 1672h285z" />
    <glyph glyph-name="zero" unicode="0" horiz-adv-x="1178" 
d="M1110 727q0 -368 -140 -563q-137 -189 -388 -189q-512 0 -512 719q0 381 144 576q138 188 396 188q500 0 500 -731zM788 717q0 500 -192 500q-205 0 -205 -515q0 -485 201 -485q196 0 196 500z" />
    <glyph glyph-name="one" unicode="1" horiz-adv-x="1178" 
d="M1077 0h-907v250h297v893l-305 -66v256l620 125v-1208h295v-250z" />
    <glyph glyph-name="two" unicode="2" horiz-adv-x="1178" 
d="M1053 0h-944v246l411 393q129 123 178 205q47 78 47 164q0 198 -213 198q-185 0 -354 -147v278q186 121 422 121q228 0 353 -119q114 -110 114 -290q0 -251 -301 -519l-295 -262v-6h582v-262z" />
    <glyph glyph-name="three" unicode="3" horiz-adv-x="1178" 
d="M1061 410q0 -198 -143 -314q-147 -121 -410 -121q-222 0 -361 72v275q143 -105 336 -105q124 0 190 53t66 144q0 99 -88 151q-83 49 -225 49h-129v242h119q280 0 280 186q0 175 -215 175q-146 0 -280 -93v258q150 76 352 76q234 0 359 -113q106 -97 106 -243
q0 -282 -285 -352v-5q155 -18 244 -114q84 -91 84 -221z" />
    <glyph glyph-name="four" unicode="4" horiz-adv-x="1178" 
d="M1124 305h-172v-305h-288v305h-625v201l602 928h311v-904h172v-225zM664 530v451q0 58 4 137h-6q-14 -36 -54 -112l-307 -476h363z" />
    <glyph glyph-name="five" unicode="5" horiz-adv-x="1178" 
d="M1065 467q0 -209 -138 -344q-150 -148 -415 -148q-209 0 -348 62v270q146 -90 313 -90q129 0 200 63q66 59 66 158q0 213 -301 213q-95 0 -237 -18v801h794v-258h-524v-287q65 6 119 6q227 0 353 -123q118 -115 118 -305z" />
    <glyph glyph-name="six" unicode="6" horiz-adv-x="1178" 
d="M1110 477q0 -215 -139.5 -358.5t-356.5 -143.5q-236 0 -372 168q-142 175 -142 498q0 366 170 588q176 229 480 229q166 0 258 -39v-264q-108 62 -238 62q-160 0 -257 -121.5t-101 -325.5h6q102 152 301 152q182 0 288 -126q103 -121 103 -319zM801 457q0 231 -189 231
q-89 0 -142 -65q-48 -60 -48 -152q0 -99 47 -171q53 -83 145 -83q87 0 138 69q49 66 49 171z" />
    <glyph glyph-name="seven" unicode="7" horiz-adv-x="1178" 
d="M1094 1288l-506 -1288h-334l510 1176h-668v258h998v-146z" />
    <glyph glyph-name="eight" unicode="8" horiz-adv-x="1178" 
d="M1100 385q0 -185 -134 -294q-141 -116 -399 -116q-217 0 -351 106.5t-134 285.5q0 258 289 378v5q-246 101 -246 327q0 166 132 273.5t341 107.5q220 0 348 -106q119 -100 119 -254q0 -236 -272 -346v-4q153 -46 235 -153q72 -95 72 -210zM768 1071q0 74 -47.5 117
t-122.5 43q-73 0 -122 -44q-52 -45 -52 -118q0 -134 172 -203q172 72 172 205zM803 385q0 164 -221 240q-201 -80 -201 -242q0 -80 64 -131q60 -49 147 -49q95 0 153 50t58 132z" />
    <glyph glyph-name="nine" unicode="9" horiz-adv-x="1178" 
d="M1087 786q0 -383 -165 -597t-459 -214q-177 0 -303 56v260q112 -74 272 -74q163 0 255 111t93 321l-6 2q-95 -141 -289 -141q-172 0 -287 118q-120 124 -120 324q0 233 146 372q140 134 360 134q211 0 344 -146q159 -176 159 -526zM768 954q0 112 -53 187.5t-140 75.5
q-80 0 -133 -64q-55 -67 -55 -174q0 -111 53.5 -172.5t141.5 -61.5q83 0 134.5 60t51.5 149z" />
    <glyph glyph-name="colon" unicode=":" horiz-adv-x="555" 
d="M463 872q0 -72 -52.5 -118.5t-136.5 -46.5q-79 0 -130.5 48t-51.5 117q0 73 53.5 118.5t133.5 45.5t132 -46t52 -118zM463 141q0 -73 -52.5 -119.5t-136.5 -46.5q-79 0 -131 50q-51 47 -51 116q0 73 53.5 118.5t133.5 45.5t132 -46.5t52 -117.5z" />
    <glyph glyph-name="semicolon" unicode=";" horiz-adv-x="555" 
d="M467 872q0 -73 -51.5 -119t-134.5 -46q-80 0 -131.5 48t-51.5 117q0 73 52.5 118.5t132.5 45.5t132 -46t52 -118zM432 252l-147 -506h-246l102 506h291z" />
    <glyph glyph-name="less" unicode="&#x3c;" horiz-adv-x="1448" 
d="M1192 63l-934 426v162l934 447v-238l-666 -285v-6l666 -268v-238z" />
    <glyph glyph-name="equal" unicode="=" horiz-adv-x="1448" 
d="M1212 700h-974v205h974v-205zM1212 266h-974v203h974v-203z" />
    <glyph glyph-name="greater" unicode="&#x3e;" horiz-adv-x="1448" 
d="M1192 502l-934 -426v237l668 267v4l-668 286v238l934 -444v-162z" />
    <glyph glyph-name="question" unicode="?" horiz-adv-x="897" 
d="M879 1096q0 -208 -209 -379q-79 -65 -105 -101q-41 -56 -41 -133v-55h-260v84q0 183 144 303q87 73 119 119q36 53 36 119q0 61 -45.5 102t-120.5 41q-165 0 -313 -131v301q153 92 346 92q226 0 344 -108q105 -96 105 -254zM584 143q0 -70 -49 -117q-52 -49 -134 -49
q-80 0 -133 49t-53 117q0 72 53.5 118t132.5 46q81 0 132 -46.5t51 -117.5z" />
    <glyph glyph-name="at" unicode="@" horiz-adv-x="1954" 
d="M1823 752q0 -268 -146 -426q-134 -146 -327 -146q-101 0 -164 55q-58 52 -64 136h-6q-70 -191 -254 -191q-131 0 -214 91q-93 101 -93 286q0 238 127 384q114 132 272 132q148 0 187 -117h4l10 99h225q-45 -427 -45 -557q0 -140 76 -140q77 0 129 101q55 107 55 282
q0 215 -127 360q-152 173 -438 173q-289 0 -480 -204q-185 -198 -185 -482q0 -276 164 -435q168 -163 466 -163q224 0 412 86v-191q-173 -73 -440 -73q-358 0 -587 199q-245 214 -245 581q0 356 236 601q249 259 647 259q356 0 577 -188q228 -194 228 -512zM1126 727
q0 82 -39 129q-38 43 -98 43q-94 0 -152 -113q-51 -98 -51 -227q0 -100 43 -155q37 -48 95 -48q96 0 151 107q51 100 51 264z" />
    <glyph glyph-name="A" unicode="A" horiz-adv-x="1440" 
d="M1425 0h-352l-102 319h-510l-101 -319h-350l522 1434h383zM897 567l-154 482q-18 57 -24 129h-8q-6 -66 -25 -125l-156 -486h367z" />
    <glyph glyph-name="B" unicode="B" horiz-adv-x="1313" 
d="M1241 428q0 -196 -140.5 -312t-385.5 -116h-551v1434h522q247 0 376 -93q122 -88 122 -243q0 -125 -90 -216q-76 -77 -189 -108v-4q155 -19 247 -116q89 -93 89 -226zM844 1038q0 158 -236 158h-121v-340h142q99 0 157 49t58 133zM901 432q0 86 -63 135t-174 49h-177
v-378h175q112 0 177 53q62 53 62 141z" />
    <glyph glyph-name="C" unicode="C" horiz-adv-x="1278" 
d="M1192 51q-157 -76 -410 -76q-340 0 -530 206q-178 192 -178 505q0 346 213 559t551 213q209 0 354 -53v-311q-145 86 -328 86q-195 0 -318 -119q-132 -128 -132 -352q0 -208 117 -331.5t315 -123.5q189 0 346 92v-295z" />
    <glyph glyph-name="D" unicode="D" horiz-adv-x="1509" 
d="M1436 735q0 -334 -208.5 -534.5t-555.5 -200.5h-508v1434h508q764 0 764 -699zM1096 731q0 201 -114 318q-119 122 -337 122h-158v-909h160q212 0 332 129q117 125 117 340z" />
    <glyph glyph-name="E" unicode="E" horiz-adv-x="1090" 
d="M1024 0h-860v1434h827v-263h-504v-319h469v-262h-469v-328h537v-262z" />
    <glyph glyph-name="F" unicode="F" horiz-adv-x="1065" 
d="M993 1171h-506v-352h465v-262h-465v-557h-323v1434h829v-263z" />
    <glyph glyph-name="G" unicode="G" horiz-adv-x="1456" 
d="M1341 96q-209 -121 -522 -121q-346 0 -545.5 192t-199.5 527q0 332 210 544q220 220 588 220q227 0 402 -63v-303q-167 96 -406 96q-196 0 -321 -124q-133 -132 -133 -355q0 -234 126 -356q112 -107 294 -107q116 0 184 33v280h-287v258h610v-721z" />
    <glyph glyph-name="H" unicode="H" horiz-adv-x="1569" 
d="M1405 0h-324v584h-594v-584h-323v1434h323v-572h594v572h324v-1434z" />
    <glyph glyph-name="I" unicode="I" horiz-adv-x="649" 
d="M487 0h-323v1434h323v-1434z" />
    <glyph glyph-name="J" unicode="J" horiz-adv-x="911" 
d="M762 569q0 -285 -131 -438q-134 -156 -389 -156q-114 0 -209 39v303q83 -63 186 -63q221 0 221 328v852h322v-865z" />
    <glyph glyph-name="K" unicode="K" horiz-adv-x="1329" 
d="M1356 0h-408l-418 623q-13 20 -38 79h-5v-702h-323v1434h323v-678h5q12 27 40 80l396 598h385l-500 -684z" />
    <glyph glyph-name="L" unicode="L" horiz-adv-x="1047" 
d="M1018 0h-854v1434h323v-1172h531v-262z" />
    <glyph glyph-name="M" unicode="M" horiz-adv-x="1960" 
d="M1798 0h-319v858q0 135 12 307h-8q-25 -133 -45 -190l-336 -975h-264l-342 965q-14 39 -45 200h-9q13 -201 13 -372v-793h-291v1434h473l293 -850q35 -103 51 -205h6q26 116 57 207l293 848h461v-1434z" />
    <glyph glyph-name="N" unicode="N" horiz-adv-x="1618" 
d="M1454 0h-326l-591 901q-50 76 -72 119h-4q8 -79 8 -232v-788h-305v1434h348l569 -873q29 -43 72 -117h4q-8 52 -8 197v793h305v-1434z" />
    <glyph glyph-name="O" unicode="O" horiz-adv-x="1552" 
d="M1479 727q0 -340 -197.5 -546t-511.5 -206q-305 0 -499 198q-197 201 -197 525q0 337 193 546q197 214 526 214q305 0 495.5 -200t190.5 -531zM1139 709q0 226 -98 350q-94 121 -257 121q-174 0 -274 -133q-96 -127 -96 -332q0 -220 106 -345q99 -116 256 -116
q161 0 259 113q104 121 104 342z" />
    <glyph glyph-name="P" unicode="P" horiz-adv-x="1257" 
d="M1212 977q0 -211 -149 -344q-156 -139 -422 -139h-154v-494h-323v1434h506q542 0 542 -457zM872 965q0 221 -258 221h-127v-447h127q258 0 258 226z" />
    <glyph glyph-name="Q" unicode="Q" horiz-adv-x="1552" 
d="M1479 727q0 -263 -120 -448q-115 -178 -319 -252l416 -385h-420l-297 333q-288 10 -473 204q-192 200 -192 519q0 335 190 543q197 217 531 217q302 0 491 -198q193 -202 193 -533zM1139 709q0 217 -93.5 344t-261.5 127q-174 0 -274 -133q-96 -127 -96 -332
q0 -219 105 -344q99 -117 257 -117q161 0 259 113q104 121 104 342z" />
    <glyph glyph-name="R" unicode="R" horiz-adv-x="1303" 
d="M1266 0h-371l-145 369q-72 180 -193 180h-70v-549h-323v1434h512q522 0 522 -390q0 -152 -89 -257q-85 -99 -235 -138v-4q126 -40 205 -221zM858 1004q0 188 -225 188h-146v-399h140q107 0 171 63q60 60 60 148z" />
    <glyph glyph-name="S" unicode="S" horiz-adv-x="1098" 
d="M1034 403q0 -178 -117 -290q-144 -138 -440 -138q-223 0 -371 80v320q171 -146 379 -146q108 0 163 47q46 40 46 99q0 69 -68 126q-54 44 -198 111q-328 155 -328 420q0 193 142.5 309.5t380.5 116.5q209 0 348 -55v-299q-145 100 -330 100q-92 0 -146.5 -40t-54.5 -105
q0 -69 48 -115q45 -43 174 -104q191 -92 273 -179q99 -106 99 -258z" />
    <glyph glyph-name="T" unicode="T" horiz-adv-x="1200" 
d="M1171 1171h-409v-1171h-324v1171h-407v263h1140v-263z" />
    <glyph glyph-name="U" unicode="U" horiz-adv-x="1481" 
d="M1333 621q0 -646 -602 -646q-584 0 -584 631v828h324v-832q0 -348 272 -348q267 0 267 336v844h323v-813z" />
    <glyph glyph-name="V" unicode="V" horiz-adv-x="1366" 
d="M1358 1434l-494 -1434h-366l-488 1434h348l299 -998q25 -81 29 -143h6q7 69 31 147l297 994h338z" />
    <glyph glyph-name="W" unicode="W" horiz-adv-x="2058" 
d="M2040 1434l-379 -1434h-358l-238 920q-18 69 -23 161h-4q-9 -95 -26 -161l-244 -920h-373l-377 1434h353l202 -955q13 -58 19 -164h6q4 79 29 168l260 951h346l235 -963q13 -51 23 -154h4q4 83 21 160l198 957h326z" />
    <glyph glyph-name="X" unicode="X" horiz-adv-x="1341" 
d="M1335 0h-383l-247 467q-13 24 -29 96h-4q-8 -33 -33 -100l-248 -463h-385l457 717l-418 717h393l205 -430q25 -52 43 -121h4q12 42 45 125l228 426h360l-430 -711z" />
    <glyph glyph-name="Y" unicode="Y" horiz-adv-x="1243" 
d="M1245 1434l-467 -924v-510h-323v504l-455 930h369l231 -535q6 -13 33 -117h4q13 73 31 113l235 539h342z" />
    <glyph glyph-name="Z" unicode="Z" horiz-adv-x="1243" 
d="M1194 1253l-719 -991h721v-262h-1155v186l735 985h-682v263h1100v-181z" />
    <glyph glyph-name="bracketleft" unicode="[" horiz-adv-x="756" 
d="M686 -326h-469v1760h469v-201h-209v-1358h209v-201z" />
    <glyph glyph-name="backslash" unicode="\" horiz-adv-x="893" 
d="M961 -238h-279l-682 1672h281z" />
    <glyph glyph-name="bracketright" unicode="]" horiz-adv-x="756" 
d="M541 -326h-471v201h211v1358h-211v201h471v-1760z" />
    <glyph glyph-name="asciicircum" unicode="^" horiz-adv-x="1448" 
d="M1249 610h-243l-287 586h-4l-271 -586h-241l430 848h162z" />
    <glyph glyph-name="underscore" unicode="_" horiz-adv-x="850" 
d="M850 -297h-850v119h850v-119z" />
    <glyph glyph-name="grave" unicode="`" horiz-adv-x="643" 
d="M596 1186h-227l-314 323h281z" />
    <glyph glyph-name="a" unicode="a" 
d="M985 0h-299v147h-4q-103 -172 -305 -172q-152 0 -238 88q-82 84 -82 222q0 297 353 344l278 37q0 168 -182 168q-184 0 -348 -109v238q62 32 171 57q120 29 218 29q438 0 438 -437v-612zM688 485l-186 -24q-154 -20 -154 -139q0 -53 37 -88t102 -35q89 0 145 61.5
t56 155.5v69z" />
    <glyph glyph-name="b" unicode="b" horiz-adv-x="1270" 
d="M1198 541q0 -256 -125 -411t-334 -155q-190 0 -286 144h-4v-119h-316v1516h316v-646h4q115 179 333 179q209 0 317 -151q95 -134 95 -357zM874 537q0 122 -51 193q-56 77 -159 77q-95 0 -157.5 -71t-62.5 -185v-105q0 -97 56.5 -163t146.5 -66q109 0 168 84t59 236z" />
    <glyph glyph-name="c" unicode="c" horiz-adv-x="983" 
d="M909 37q-106 -62 -309 -62q-238 0 -385 147q-143 142 -143 365q0 266 162 417q156 145 413 145q182 0 262 -48v-268q-99 74 -221 74q-134 0 -213 -78q-82 -80 -82 -221q0 -135 76.5 -213t208.5 -78q118 0 231 74v-254z" />
    <glyph glyph-name="d" unicode="d" horiz-adv-x="1268" 
d="M1135 0h-316v141h-4q-108 -166 -317 -166q-180 0 -295 120q-131 137 -131 394q0 256 131 410q129 150 336 150q198 0 276 -142h4v609h316v-1516zM825 498v77q0 101 -58 166.5t-151 65.5q-106 0 -164.5 -84t-58.5 -225q0 -142 63 -215q56 -66 152 -66q94 0 155 74
q62 78 62 207z" />
    <glyph glyph-name="e" unicode="e" horiz-adv-x="1108" 
d="M1053 422h-668q16 -223 281 -223q168 0 297 80v-228q-142 -76 -369 -76q-251 0 -388 140q-134 137 -134 381q0 270 166 422q143 131 346 131q233 0 357 -145q112 -131 112 -349v-133zM760 616q0 220 -178 220q-79 0 -136 -68q-52 -62 -63 -152h377z" />
    <glyph glyph-name="f" unicode="f" horiz-adv-x="784" 
d="M801 1274q-63 24 -117 24q-152 0 -152 -165v-109h234v-233h-234v-791h-315v791h-172v233h172v127q0 170 108 276q115 113 316 113q94 0 160 -20v-246z" />
    <glyph glyph-name="g" unicode="g" horiz-adv-x="1268" 
d="M1137 117q0 -269 -147 -424q-166 -174 -496 -174q-207 0 -328 59v266q158 -92 319 -92q167 0 255 91q81 83 81 223v81h-4q-108 -172 -319 -172q-196 0 -311 138t-115 370q0 264 132 418q127 148 333 148q188 0 280 -144h4v119h316v-907zM825 492v81q0 94 -53 161
q-59 73 -154 73q-105 0 -165 -82t-60 -231q0 -125 54 -199q57 -78 159 -78q98 0 158.5 75.5t60.5 199.5z" />
    <glyph glyph-name="h" unicode="h" horiz-adv-x="1233" 
d="M1116 0h-315v582q0 225 -164 225q-87 0 -139 -67q-49 -62 -49 -156v-584h-316v1516h316v-644h4q115 177 315 177q348 0 348 -420v-629z" />
    <glyph glyph-name="i" unicode="i" horiz-adv-x="582" 
d="M475 1350q0 -71 -50 -117.5t-132 -46.5q-81 0 -131.5 47.5t-50.5 116.5q0 72 51.5 116.5t130.5 44.5q80 0 131 -45.5t51 -115.5zM449 0h-316v1024h316v-1024z" />
    <glyph glyph-name="j" unicode="j" horiz-adv-x="582" 
d="M475 1350q0 -71 -50 -117.5t-132 -46.5q-81 0 -131.5 47.5t-50.5 116.5q0 72 51.5 116.5t130.5 44.5q80 0 131 -45.5t51 -115.5zM449 18q0 -199 -87 -330q-111 -169 -344 -169q-68 0 -151 30v248q65 -37 117 -37q149 0 149 234v1030h316v-1006z" />
    <glyph glyph-name="k" unicode="k" horiz-adv-x="1145" 
d="M1159 0h-379l-327 508h-4v-508h-316v1516h316v-965h4l305 473h375l-367 -481z" />
    <glyph glyph-name="l" unicode="l" horiz-adv-x="582" 
d="M449 0h-316v1516h316v-1516z" />
    <glyph glyph-name="m" unicode="m" horiz-adv-x="1876" 
d="M1759 0h-315v584q0 223 -164 223q-78 0 -127 -67t-49 -167v-573h-316v590q0 217 -161 217q-81 0 -129.5 -64t-48.5 -174v-569h-316v1024h316v-160h4q44 75 123 125q95 60 208 60q218 0 297 -191q117 191 344 191q334 0 334 -412v-637z" />
    <glyph glyph-name="n" unicode="n" horiz-adv-x="1239" 
d="M1122 0h-315v569q0 238 -170 238q-83 0 -135.5 -64t-52.5 -159v-584h-316v1024h316v-162h4q112 187 329 187q340 0 340 -422v-627z" />
    <glyph glyph-name="o" unicode="o" horiz-adv-x="1251" 
d="M1180 526q0 -252 -147 -400q-150 -151 -412 -151q-257 0 -403 143.5t-146 389.5q0 259 158 403q150 138 405 138q264 0 411 -154q134 -142 134 -369zM858 520q0 287 -229 287q-109 0 -171 -74q-65 -77 -65 -221q0 -295 238 -295q227 0 227 303z" />
    <glyph glyph-name="p" unicode="p" horiz-adv-x="1270" 
d="M1198 541q0 -256 -126.5 -411t-336.5 -155q-186 0 -282 144h-4v-590h-316v1495h316v-154h4q115 179 329 179q210 0 319 -151q97 -135 97 -357zM874 537q0 270 -210 270q-96 0 -158 -73t-62 -195v-82q0 -106 56 -173t147 -67q109 0 168 84t59 236z" />
    <glyph glyph-name="q" unicode="q" horiz-adv-x="1268" 
d="M1135 -471h-316v612h-4q-107 -166 -315 -166q-181 0 -296 119q-132 136 -132 393q0 261 134 415q128 147 331 147q188 0 278 -144h4v119h316v-1495zM825 489v82q0 98 -55 165q-58 71 -152 71q-105 0 -165 -83t-60 -228q0 -137 64 -212q57 -67 147 -67q101 0 161 76
t60 196z" />
    <glyph glyph-name="r" unicode="r" horiz-adv-x="815" 
d="M801 739q-57 31 -133 31q-104 0 -161.5 -75.5t-57.5 -205.5v-489h-316v1024h316v-190h4q75 208 270 208q49 0 78 -12v-291z" />
    <glyph glyph-name="s" unicode="s" horiz-adv-x="901" 
d="M840 313q0 -148 -109 -238q-120 -100 -340 -100q-162 0 -297 52v256q154 -93 293 -93q150 0 150 93q0 41 -36 67t-157 72q-125 47 -182 108q-68 73 -68 193q0 147 116 236.5t314 89.5q127 0 254 -41v-244q-119 70 -250 70q-125 0 -125 -86q0 -46 35 -74q31 -24 125 -58
q138 -49 202 -112q75 -74 75 -191z" />
    <glyph glyph-name="t" unicode="t" horiz-adv-x="797" 
d="M752 12q-71 -37 -211 -37q-334 0 -334 347v469h-166v233h166v221l315 90v-311h230v-233h-230v-414q0 -160 127 -160q50 0 103 29v-234z" />
    <glyph glyph-name="u" unicode="u" horiz-adv-x="1239" 
d="M1106 0h-315v156h-5q-116 -181 -313 -181q-356 0 -356 431v618h315v-590q0 -217 172 -217q83 0 135 59t52 162v586h315v-1024z" />
    <glyph glyph-name="v" unicode="v" horiz-adv-x="1110" 
d="M1108 1024l-381 -1024h-360l-363 1024h338l178 -631q30 -105 35 -182h4q7 71 37 176l182 637h330z" />
    <glyph glyph-name="w" unicode="w" horiz-adv-x="1632" 
d="M1616 1024l-295 -1024h-332l-151 600q-14 56 -17 131h-6q-7 -76 -20 -127l-162 -604h-328l-289 1024h322l141 -668q9 -42 15 -114h6q5 68 18 118l176 664h301l158 -668q7 -27 14 -116h7q4 56 16 116l133 668h293z" />
    <glyph glyph-name="x" unicode="x" horiz-adv-x="1130" 
d="M1122 1024l-338 -496l336 -528h-364l-148 276q-21 40 -43 93h-4q-15 -43 -41 -90l-149 -279h-363l346 510l-325 514h366l146 -287q29 -57 41 -96h4q16 47 43 98l149 285h344z" />
    <glyph glyph-name="y" unicode="y" 
d="M1108 1024l-416 -1106q-150 -399 -452 -399q-110 0 -189 26v252q63 -37 137 -37q122 0 170 115l54 127l-416 1022h350l191 -623q19 -63 28 -137h4q10 60 33 135l193 625h313z" />
    <glyph glyph-name="z" unicode="z" horiz-adv-x="981" 
d="M940 868l-487 -635h491v-233h-919v131l514 660h-463v233h864v-156z" />
    <glyph glyph-name="braceleft" unicode="{" horiz-adv-x="756" 
d="M674 -326q-238 0 -333 94q-83 83 -83 271v240q0 184 -152 184v184q152 0 152 191v223q0 194 86 279q96 94 330 94v-187q-160 0 -160 -174v-213q0 -240 -154 -303v-4q154 -62 154 -307v-205q0 -98 37.5 -139t122.5 -41v-187z" />
    <glyph glyph-name="bar" unicode="|" horiz-adv-x="668" 
d="M461 -481h-252v2048h252v-2048z" />
    <glyph glyph-name="braceright" unicode="}" horiz-adv-x="756" 
d="M651 463q-153 0 -153 -187v-231q0 -194 -82 -277q-94 -94 -332 -94v187q88 0 124 42t36 136v213q0 238 153 299v4q-153 63 -153 313v205q0 174 -160 174v187q233 0 329 -95q85 -85 85 -274v-229q0 -189 153 -189v-184z" />
    <glyph glyph-name="asciitilde" unicode="~" horiz-adv-x="1448" 
d="M1255 772q-5 -165 -86 -263q-85 -101 -227 -101q-106 0 -258 88q-110 63 -156 63q-123 0 -129 -160h-204q5 160 81 257q84 108 236 108q112 0 240 -77q127 -77 178 -77q53 0 86 46t35 116h204z" />
    <glyph glyph-name="Adieresis" unicode="&#xc4;" horiz-adv-x="1440" 
d="M1425 0h-352l-102 319h-510l-101 -319h-350l522 1434h383zM897 567l-154 482q-18 57 -24 129h-8q-6 -66 -25 -125l-156 -486h367zM1099 1704q0 -59 -42 -98t-112 -39q-68 0 -110.5 39.5t-42.5 97.5q0 60 43.5 98.5t109.5 38.5q67 0 110.5 -39t43.5 -98zM640 1704
q0 -59 -42 -98t-111 -39q-68 0 -111 39.5t-43 97.5q0 60 43.5 98.5t110.5 38.5t110 -38.5t43 -98.5z" />
    <glyph glyph-name="Aring" unicode="&#xc5;" horiz-adv-x="1440" 
d="M1425 0h-352l-102 319h-510l-101 -319h-350l512 1407q-53 54 -53 137q0 112 81 175q71 57 173 57q114 0 184 -63.5t70 -164.5q0 -80 -53 -137zM825 1546q0 42 -28.5 70.5t-77.5 28.5q-103 0 -103 -99q0 -98 103 -98q49 0 79 30q27 28 27 68zM893 584l-152 465
q-13 42 -22 120h-8q-8 -71 -23 -116l-153 -469h358z" />
    <glyph glyph-name="Ccedilla" unicode="&#xc7;" horiz-adv-x="1278" 
d="M1192 51q-139 -67 -363 -76v-57q187 -8 187 -166q0 -207 -318 -207q-45 0 -88 4v138q38 -6 72 -6q123 0 123 73q0 66 -111 66q-12 0 -37 -2v166q-281 36 -436 233q-147 187 -147 469q0 346 213 559t551 213q209 0 354 -53v-311q-145 86 -328 86q-195 0 -318 -119
q-132 -128 -132 -352q0 -208 117 -331.5t315 -123.5q189 0 346 92v-295z" />
    <glyph glyph-name="Eacute" unicode="&#xc9;" horiz-adv-x="1090" 
d="M1024 0h-860v1434h827v-263h-504v-319h469v-262h-469v-328h537v-262zM934 1890l-313 -323h-228l260 323h281z" />
    <glyph glyph-name="Ntilde" unicode="&#xd1;" horiz-adv-x="1618" 
d="M1454 0h-326l-591 901q-50 76 -72 119h-4q8 -79 8 -232v-788h-305v1434h348l569 -873q29 -43 72 -117h4q-8 52 -8 197v793h305v-1434zM1206 1878q0 -140 -55.5 -216.5t-151.5 -76.5q-86 0 -168 43q-90 47 -123 47q-80 0 -80 -108h-141q0 137 54 215t155 78q80 0 168 -49
q76 -44 120 -44q78 0 78 111h144z" />
    <glyph glyph-name="Odieresis" unicode="&#xd6;" horiz-adv-x="1552" 
d="M1479 727q0 -340 -197.5 -546t-511.5 -206q-305 0 -499 198q-197 201 -197 525q0 337 193 546q197 214 526 214q305 0 495.5 -200t190.5 -531zM1139 709q0 226 -98 350q-94 121 -257 121q-174 0 -274 -133q-96 -127 -96 -332q0 -220 106 -345q99 -116 256 -116
q161 0 259 113q104 121 104 342zM1158 1704q0 -59 -42 -98t-112 -39q-68 0 -110.5 39.5t-42.5 97.5q0 60 43.5 98.5t109.5 38.5q67 0 110.5 -39t43.5 -98zM699 1704q0 -59 -42 -98t-111 -39q-68 0 -111 39.5t-43 97.5q0 60 43.5 98.5t110.5 38.5t110 -38.5t43 -98.5z" />
    <glyph glyph-name="Udieresis" unicode="&#xdc;" horiz-adv-x="1481" 
d="M1333 621q0 -646 -602 -646q-584 0 -584 631v828h324v-832q0 -348 272 -348q267 0 267 336v844h323v-813zM1123 1704q0 -59 -42 -98t-112 -39q-68 0 -110.5 39.5t-42.5 97.5q0 60 43.5 98.5t109.5 38.5q67 0 110.5 -39t43.5 -98zM664 1704q0 -59 -42 -98t-111 -39
q-68 0 -111 39.5t-43 97.5q0 60 43.5 98.5t110.5 38.5t110 -38.5t43 -98.5z" />
    <glyph glyph-name="aacute" unicode="&#xe1;" 
d="M985 0h-299v147h-4q-103 -172 -305 -172q-152 0 -238 88q-82 84 -82 222q0 297 353 344l278 37q0 168 -182 168q-184 0 -348 -109v238q62 32 171 57q120 29 218 29q438 0 438 -437v-612zM688 485l-186 -24q-154 -20 -154 -139q0 -53 37 -88t102 -35q89 0 145 61.5
t56 155.5v69zM891 1509l-313 -323h-228l260 323h281z" />
    <glyph glyph-name="agrave" unicode="&#xe0;" 
d="M985 0h-299v147h-4q-103 -172 -305 -172q-152 0 -238 88q-82 84 -82 222q0 297 353 344l278 37q0 168 -182 168q-184 0 -348 -109v238q62 32 171 57q120 29 218 29q438 0 438 -437v-612zM688 485l-186 -24q-154 -20 -154 -139q0 -53 37 -88t102 -35q89 0 145 61.5
t56 155.5v69zM775 1186h-227l-314 323h281z" />
    <glyph glyph-name="acircumflex" unicode="&#xe2;" 
d="M985 0h-299v147h-4q-103 -172 -305 -172q-152 0 -238 88q-82 84 -82 222q0 297 353 344l278 37q0 168 -182 168q-184 0 -348 -109v238q62 32 171 57q120 29 218 29q438 0 438 -437v-612zM688 485l-186 -24q-154 -20 -154 -139q0 -53 37 -88t102 -35q89 0 145 61.5
t56 155.5v69zM402 1186h-207l235 325h248l236 -325h-207l-158 188z" />
    <glyph glyph-name="adieresis" unicode="&#xe4;" 
d="M985 0h-299v147h-4q-103 -172 -305 -172q-152 0 -238 88q-82 84 -82 222q0 297 353 344l278 37q0 168 -182 168q-184 0 -348 -109v238q62 32 171 57q120 29 218 29q438 0 438 -437v-612zM688 485l-186 -24q-154 -20 -154 -139q0 -53 37 -88t102 -35q89 0 145 61.5
t56 155.5v69zM941 1323q0 -59 -42 -98t-112 -39q-68 0 -110.5 39.5t-42.5 97.5q0 60 43.5 98.5t109.5 38.5q67 0 110.5 -39t43.5 -98zM482 1323q0 -59 -42 -98t-111 -39q-68 0 -111 39.5t-43 97.5q0 60 43.5 98.5t110.5 38.5t110 -38.5t43 -98.5z" />
    <glyph glyph-name="atilde" unicode="&#xe3;" 
d="M985 0h-299v147h-4q-103 -172 -305 -172q-152 0 -238 88q-82 84 -82 222q0 297 353 344l278 37q0 168 -182 168q-184 0 -348 -109v238q62 32 171 57q120 29 218 29q438 0 438 -437v-612zM688 485l-186 -24q-154 -20 -154 -139q0 -53 37 -88t102 -35q89 0 145 61.5
t56 155.5v69zM907 1497q0 -140 -55.5 -216.5t-151.5 -76.5q-86 0 -168 43q-90 47 -123 47q-80 0 -80 -108h-141q0 137 54 215t155 78q80 0 168 -49q76 -44 120 -44q78 0 78 111h144z" />
    <glyph glyph-name="aring" unicode="&#xe5;" 
d="M985 0h-299v147h-4q-103 -172 -305 -172q-152 0 -238 88q-82 84 -82 222q0 297 353 344l278 37q0 168 -182 168q-184 0 -348 -109v238q62 32 171 57q120 29 218 29q438 0 438 -437v-612zM688 485l-186 -24q-154 -20 -154 -139q0 -53 37 -88t102 -35q89 0 145 61.5
t56 155.5v69zM817 1407q0 -102 -76 -164q-70 -57 -168 -57q-101 0 -168 59t-67 156q0 105 76 167q67 54 164 54q107 0 173 -60t66 -155zM676 1405q0 40 -28 67t-75 27q-96 0 -96 -94t96 -94q47 0 75 28t28 66z" />
    <glyph glyph-name="ccedilla" unicode="&#xe7;" horiz-adv-x="983" 
d="M909 37q-95 -55 -264 -62v-57q186 -8 186 -166q0 -207 -317 -207q-45 0 -88 4v138q38 -6 72 -6q123 0 123 73q0 66 -111 66q-13 0 -37 -2v170q-185 36 -293 172.5t-108 326.5q0 266 162 417q156 145 413 145q182 0 262 -48v-268q-99 74 -221 74q-134 0 -213 -78
q-82 -80 -82 -221q0 -135 76.5 -213t208.5 -78q118 0 231 74v-254z" />
    <glyph glyph-name="eacute" unicode="&#xe9;" horiz-adv-x="1108" 
d="M1053 422h-668q16 -223 281 -223q168 0 297 80v-228q-142 -76 -369 -76q-251 0 -388 140q-134 137 -134 381q0 270 166 422q143 131 346 131q233 0 357 -145q112 -131 112 -349v-133zM760 616q0 220 -178 220q-79 0 -136 -68q-52 -62 -63 -152h377zM921 1509l-313 -323
h-228l260 323h281z" />
    <glyph glyph-name="egrave" unicode="&#xe8;" horiz-adv-x="1108" 
d="M1053 422h-668q16 -223 281 -223q168 0 297 80v-228q-142 -76 -369 -76q-251 0 -388 140q-134 137 -134 381q0 270 166 422q143 131 346 131q233 0 357 -145q112 -131 112 -349v-133zM760 616q0 220 -178 220q-79 0 -136 -68q-52 -62 -63 -152h377zM795 1186h-227
l-314 323h281z" />
    <glyph glyph-name="ecircumflex" unicode="&#xea;" horiz-adv-x="1108" 
d="M1053 422h-668q16 -223 281 -223q168 0 297 80v-228q-142 -76 -369 -76q-251 0 -388 140q-134 137 -134 381q0 270 166 422q143 131 346 131q233 0 357 -145q112 -131 112 -349v-133zM760 616q0 220 -178 220q-79 0 -136 -68q-52 -62 -63 -152h377zM437 1186h-207
l235 325h248l236 -325h-207l-158 188z" />
    <glyph glyph-name="edieresis" unicode="&#xeb;" horiz-adv-x="1108" 
d="M1053 422h-668q16 -223 281 -223q168 0 297 80v-228q-142 -76 -369 -76q-251 0 -388 140q-134 137 -134 381q0 270 166 422q143 131 346 131q233 0 357 -145q112 -131 112 -349v-133zM760 616q0 220 -178 220q-79 0 -136 -68q-52 -62 -63 -152h377zM962 1323
q0 -59 -42 -98t-112 -39q-68 0 -110.5 39.5t-42.5 97.5q0 60 43.5 98.5t109.5 38.5q67 0 110.5 -39t43.5 -98zM503 1323q0 -59 -42 -98t-111 -39q-68 0 -111 39.5t-43 97.5q0 60 43.5 98.5t110.5 38.5t110 -38.5t43 -98.5z" />
    <glyph glyph-name="iacute" unicode="&#xed;" horiz-adv-x="582" 
d="M449 0h-316v1024h316v-1024zM612 1509l-313 -323h-228l260 323h281z" />
    <glyph glyph-name="igrave" unicode="&#xec;" horiz-adv-x="582" 
d="M449 0h-316v1024h316v-1024zM514 1186h-227l-314 323h281z" />
    <glyph glyph-name="icircumflex" unicode="&#xee;" horiz-adv-x="582" 
d="M449 0h-316v1024h316v-1024zM145 1186h-207l235 325h248l236 -325h-207l-158 188z" />
    <glyph glyph-name="idieresis" unicode="&#xef;" horiz-adv-x="582" 
d="M449 0h-316v1024h316v-1024zM680 1323q0 -59 -42 -98t-112 -39q-68 0 -110.5 39.5t-42.5 97.5q0 60 43.5 98.5t109.5 38.5q67 0 110.5 -39t43.5 -98zM221 1323q0 -59 -42 -98t-111 -39q-68 0 -111 39.5t-43 97.5q0 60 43.5 98.5t110.5 38.5t110 -38.5t43 -98.5z" />
    <glyph glyph-name="ntilde" unicode="&#xf1;" horiz-adv-x="1239" 
d="M1122 0h-315v569q0 238 -170 238q-83 0 -135.5 -64t-52.5 -159v-584h-316v1024h316v-162h4q112 187 329 187q340 0 340 -422v-627zM982 1497q0 -140 -55.5 -216.5t-151.5 -76.5q-86 0 -168 43q-90 47 -123 47q-80 0 -80 -108h-141q0 137 54 215t155 78q80 0 168 -49
q76 -44 120 -44q78 0 78 111h144z" />
    <glyph glyph-name="oacute" unicode="&#xf3;" horiz-adv-x="1251" 
d="M1180 526q0 -252 -147 -400q-150 -151 -412 -151q-257 0 -403 143.5t-146 389.5q0 259 158 403q150 138 405 138q264 0 411 -154q134 -142 134 -369zM858 520q0 287 -229 287q-109 0 -171 -74q-65 -77 -65 -221q0 -295 238 -295q227 0 227 303zM968 1509l-313 -323h-228
l260 323h281z" />
    <glyph glyph-name="ograve" unicode="&#xf2;" horiz-adv-x="1251" 
d="M1180 526q0 -252 -147 -400q-150 -151 -412 -151q-257 0 -403 143.5t-146 389.5q0 259 158 403q150 138 405 138q264 0 411 -154q134 -142 134 -369zM858 520q0 287 -229 287q-109 0 -171 -74q-65 -77 -65 -221q0 -295 238 -295q227 0 227 303zM852 1186h-227l-314 323
h281z" />
    <glyph glyph-name="ocircumflex" unicode="&#xf4;" horiz-adv-x="1251" 
d="M1180 526q0 -252 -147 -400q-150 -151 -412 -151q-257 0 -403 143.5t-146 389.5q0 259 158 403q150 138 405 138q264 0 411 -154q134 -142 134 -369zM858 520q0 287 -229 287q-109 0 -171 -74q-65 -77 -65 -221q0 -295 238 -295q227 0 227 303zM476 1186h-207l235 325
h248l236 -325h-207l-158 188z" />
    <glyph glyph-name="odieresis" unicode="&#xf6;" horiz-adv-x="1251" 
d="M1180 526q0 -252 -147 -400q-150 -151 -412 -151q-257 0 -403 143.5t-146 389.5q0 259 158 403q150 138 405 138q264 0 411 -154q134 -142 134 -369zM858 520q0 287 -229 287q-109 0 -171 -74q-65 -77 -65 -221q0 -295 238 -295q227 0 227 303zM1013 1323q0 -59 -42 -98
t-112 -39q-68 0 -110.5 39.5t-42.5 97.5q0 60 43.5 98.5t109.5 38.5q67 0 110.5 -39t43.5 -98zM554 1323q0 -59 -42 -98t-111 -39q-68 0 -111 39.5t-43 97.5q0 60 43.5 98.5t110.5 38.5t110 -38.5t43 -98.5z" />
    <glyph glyph-name="otilde" unicode="&#xf5;" horiz-adv-x="1251" 
d="M1180 526q0 -252 -147 -400q-150 -151 -412 -151q-257 0 -403 143.5t-146 389.5q0 259 158 403q150 138 405 138q264 0 411 -154q134 -142 134 -369zM858 520q0 287 -229 287q-109 0 -171 -74q-65 -77 -65 -221q0 -295 238 -295q227 0 227 303zM985 1497
q0 -140 -55.5 -216.5t-151.5 -76.5q-86 0 -168 43q-90 47 -123 47q-80 0 -80 -108h-141q0 137 54 215t155 78q80 0 168 -49q76 -44 120 -44q78 0 78 111h144z" />
    <glyph glyph-name="uacute" unicode="&#xfa;" horiz-adv-x="1239" 
d="M1106 0h-315v156h-5q-116 -181 -313 -181q-356 0 -356 431v618h315v-590q0 -217 172 -217q83 0 135 59t52 162v586h315v-1024zM977 1509l-313 -323h-228l260 323h281z" />
    <glyph glyph-name="ugrave" unicode="&#xf9;" horiz-adv-x="1239" 
d="M1106 0h-315v156h-5q-116 -181 -313 -181q-356 0 -356 431v618h315v-590q0 -217 172 -217q83 0 135 59t52 162v586h315v-1024zM784 1186h-227l-314 323h281z" />
    <glyph glyph-name="ucircumflex" unicode="&#xfb;" horiz-adv-x="1239" 
d="M1106 0h-315v156h-5q-116 -181 -313 -181q-356 0 -356 431v618h315v-590q0 -217 172 -217q83 0 135 59t52 162v586h315v-1024zM458 1186h-207l235 325h248l236 -325h-207l-158 188z" />
    <glyph glyph-name="udieresis" unicode="&#xfc;" horiz-adv-x="1239" 
d="M1106 0h-315v156h-5q-116 -181 -313 -181q-356 0 -356 431v618h315v-590q0 -217 172 -217q83 0 135 59t52 162v586h315v-1024zM998 1323q0 -59 -42 -98t-112 -39q-68 0 -110.5 39.5t-42.5 97.5q0 60 43.5 98.5t109.5 38.5q67 0 110.5 -39t43.5 -98zM539 1323
q0 -59 -42 -98t-111 -39q-68 0 -111 39.5t-43 97.5q0 60 43.5 98.5t110.5 38.5t110 -38.5t43 -98.5z" />
    <glyph glyph-name="dagger" unicode="&#x2020;" horiz-adv-x="831" 
d="M766 948h-248v-706h-209v706h-248v176h248v310h209v-310h248v-176z" />
    <glyph glyph-name="degree" unicode="&#xb0;" horiz-adv-x="778" 
d="M684 1178q0 -118 -83.5 -200.5t-201.5 -82.5t-201 82t-83 201q0 118 83 199t201 81t201.5 -81.5t83.5 -198.5zM528 1178q0 53 -37.5 91t-91.5 38t-91.5 -37.5t-37.5 -91.5t38 -92.5t91 -38.5t91 38.5t38 92.5z" />
    <glyph glyph-name="cent" unicode="&#xa2;" horiz-adv-x="1178" 
d="M1004 207q-74 -43 -181 -55v-189h-161v184q-210 12 -347 144q-145 141 -145 366q0 243 144 393q132 137 348 160v211h161v-207q109 -6 181 -45v-272q-76 58 -181 70v-574q107 17 181 68v-254zM662 399v559q-195 -59 -195 -280q0 -222 195 -279z" />
    <glyph glyph-name="sterling" unicode="&#xa3;" horiz-adv-x="1178" 
d="M1114 0h-971v227q193 52 193 269v116h-172v217h172v187q0 194 118 315q123 127 334 127q126 0 234 -49v-258q-98 66 -209 66q-184 0 -184 -230v-158h268v-217h-268v-86q0 -185 -152 -284h637v-242z" />
    <glyph glyph-name="section" unicode="&#xa7;" horiz-adv-x="993" 
d="M901 705q0 -166 -149 -271q82 -75 82 -174q0 -149 -108.5 -237.5t-285.5 -88.5q-165 0 -290 68v248q178 -105 311 -105q127 0 127 99q0 61 -96 108q-31 15 -99 47q-262 128 -262 332q0 143 125 234q-88 87 -88 215q0 138 99 223q103 88 278 88q138 0 260 -55v-250
q-140 96 -260 96q-123 0 -123 -94q0 -54 64 -96q33 -22 161 -78q254 -113 254 -309zM662 676q0 55 -42 91q-47 41 -188 97q-65 -38 -65 -110q0 -57 51 -102t178 -99q66 43 66 123z" />
    <glyph glyph-name="bullet" unicode="&#x2022;" horiz-adv-x="864" 
d="M711 557q0 -113 -82 -194.5t-195 -81.5t-193.5 81.5t-80.5 194.5t80.5 193.5t193.5 80.5q114 0 195.5 -80.5t81.5 -193.5z" />
    <glyph glyph-name="paragraph" unicode="&#xb6;" horiz-adv-x="1042" 
d="M946 1272h-117v-1272h-174v1272h-118v-1272h-177v836q-115 7 -190 90q-78 86 -78 213q0 131 88 214q85 81 209 81h557v-162z" />
    <glyph glyph-name="germandbls" unicode="&#xdf;" horiz-adv-x="1286" 
d="M1227 406q0 -167 -110 -288q-129 -143 -359 -143q-106 0 -213 33v262q83 -53 176 -53q83 0 132.5 52.5t49.5 144.5q0 116 -89.5 183.5t-250.5 72.5v221q108 7 171 66.5t63 160.5q0 84 -44.5 132t-119.5 48q-184 0 -184 -245v-1053h-316v1049q0 212 125 345
q138 146 393 146q225 0 352 -118q117 -107 117 -273q0 -126 -77 -222q-71 -86 -179 -118v-4q363 -70 363 -399z" />
    <glyph glyph-name="registered" unicode="&#xae;" horiz-adv-x="1790" 
d="M1661 717q0 -317 -221.5 -529.5t-546.5 -212.5q-333 0 -547.5 207t-214.5 531q0 315 219.5 530t550.5 215q324 0 539 -204q221 -209 221 -537zM1528 713q0 273 -180.5 451.5t-450.5 178.5q-278 0 -458 -183q-175 -179 -175 -445q0 -275 185 -454q180 -175 448 -175
q262 0 446.5 178.5t184.5 448.5zM1288 264h-254l-76 232q-40 122 -110 122h-74v-354h-211v922h320q370 0 370 -262q0 -189 -217 -244v-4q89 -20 142 -146zM1024 899q0 111 -160 111h-90v-230h111q139 0 139 119z" />
    <glyph glyph-name="copyright" unicode="&#xa9;" horiz-adv-x="1790" 
d="M1661 719q0 -317 -221.5 -530.5t-546.5 -213.5q-333 0 -547.5 207t-214.5 531q0 315 219.5 530t550.5 215q324 0 539 -203q221 -209 221 -536zM1528 715q0 272 -180.5 450t-450.5 178q-278 0 -458 -183q-175 -179 -175 -445q0 -275 185 -454q180 -175 448 -175
q262 0 446.5 179.5t184.5 449.5zM1204 295q-124 -68 -274 -68q-210 0 -348 136q-136 133 -136 333q0 234 148 375q143 135 369 135q124 0 239 -55v-236q-98 76 -244 76q-109 0 -185 -69q-85 -78 -85 -213q0 -125 83 -201q77 -72 194 -72q141 0 239 76v-217z" />
    <glyph glyph-name="trademark" unicode="&#x2122;" horiz-adv-x="1579" 
d="M1395 772h-150v445h-4l-160 -445h-135l-145 445h-6v-445h-148v662h217l156 -453h4l168 453h203v-662zM582 1311h-179v-539h-155v539h-172v123h506v-123z" />
    <glyph glyph-name="acute" unicode="&#xb4;" horiz-adv-x="621" 
d="M596 1509l-313 -323h-228l260 323h281z" />
    <glyph glyph-name="dieresis" unicode="&#xa8;" horiz-adv-x="946" 
d="M852 1323q0 -59 -42 -98t-112 -39q-68 0 -110.5 39.5t-42.5 97.5q0 60 43.5 98.5t109.5 38.5q67 0 110.5 -39t43.5 -98zM393 1323q0 -59 -42 -98t-111 -39q-68 0 -111 39.5t-43 97.5q0 60 43.5 98.5t110.5 38.5t110 -38.5t43 -98.5z" />
    <glyph glyph-name="notequal" unicode="&#x2260;" horiz-adv-x="1450" 
d="M1212 266h-536l-139 -266h-244l139 266h-194v203h301l120 231h-421v205h528l145 283h244l-145 -283h202v-205h-309l-121 -231h430v-203z" />
    <glyph glyph-name="AE" unicode="&#xc6;" horiz-adv-x="1915" 
d="M1849 0h-858v319h-471l-147 -319h-375l725 1434h1094v-263h-504v-319h469v-262h-469v-328h536v-262zM991 567v604h-78l-282 -604h360z" />
    <glyph glyph-name="Oslash" unicode="&#xd8;" horiz-adv-x="1552" 
d="M1479 727q0 -340 -197.5 -546t-511.5 -206q-242 0 -422 134l-143 -170l-125 104l149 176q-155 193 -155 479q0 336 192 545q197 215 527 215q234 0 401 -119l129 150l125 -103l-135 -157q166 -197 166 -502zM1163 707q0 164 -53 288l-578 -676q101 -92 244 -92
q169 0 274 120q113 129 113 360zM1016 1130q-97 76 -232 76q-184 0 -290 -141q-103 -136 -103 -356q0 -147 47 -252z" />
    <glyph glyph-name="infinity" unicode="&#x221e;" horiz-adv-x="1663" 
d="M1599 584q0 -164 -110 -279q-112 -119 -277 -119q-231 0 -378 252q-155 -243 -379 -243q-169 0 -277 110.5t-108 292.5q0 164 110 280.5t275 116.5q235 0 379 -252q151 242 380 242q169 0 276 -108q109 -112 109 -293zM1368 586q0 82 -50.5 137t-133.5 55
q-134 0 -244 -192q108 -191 246 -191q81 0 131.5 54t50.5 137zM729 596q-109 192 -246 192q-81 0 -132.5 -55t-51.5 -137q0 -81 51.5 -135.5t134.5 -54.5q136 0 244 190z" />
    <glyph glyph-name="plusminus" unicode="&#xb1;" horiz-adv-x="1448" 
d="M1212 694h-385v-387h-202v387h-383v203h383v391h202v-391h385v-203zM1210 0h-972v203h972v-203z" />
    <glyph glyph-name="lessequal" unicode="&#x2264;" horiz-adv-x="1450" 
d="M1194 248l-936 399v174l936 418v-238l-668 -264v-4l668 -248v-237zM1210 0h-972v203h972v-203z" />
    <glyph glyph-name="greaterequal" unicode="&#x2265;" horiz-adv-x="1450" 
d="M1194 647l-936 -399v237l668 246v4l-668 266v238l936 -418v-174zM1210 0h-972v203h972v-203z" />
    <glyph glyph-name="yen" unicode="&#xa5;" horiz-adv-x="1178" 
d="M1157 1434l-354 -641h252v-189h-305v-153h305v-189h-305v-262h-308v262h-315v189h315v153h-315v189h256l-342 641h321l209 -484q15 -31 37 -86h4q5 13 37 90l203 480h305z" />
    <glyph glyph-name="uni00B5" unicode="&#xb5;" horiz-adv-x="1253" 
d="M1122 0h-313v131h-4q-27 -64 -87 -105.5t-128 -41.5q-97 0 -141 61h-5l2 -389h-313v1368h316v-561q0 -240 163 -240q78 0 132 48q61 52 61 141v612h317v-1024z" />
    <glyph glyph-name="partialdiff" unicode="&#x2202;" horiz-adv-x="1183" 
d="M1149 922q0 -205 -66 -426q-73 -249 -227 -383q-157 -138 -381 -138q-205 0 -319 117q-111 112 -111 305q0 242 134 423q148 200 384 200q168 0 256 -141h4q2 31 2 39q0 342 -243 342q-135 0 -269 -70l64 250q138 61 285 61q487 0 487 -579zM786 645q-38 154 -157 154
q-112 0 -190 -129q-72 -118 -72 -262q0 -191 143 -191q103 0 179 122q75 118 97 306z" />
    <glyph glyph-name="summation" unicode="&#x2211;" horiz-adv-x="1315" 
d="M1270 -469h-1217v176l604 785l-579 757v185h1159v-263h-707l500 -671l-528 -707h768v-262z" />
    <glyph glyph-name="product" unicode="&#x220f;" horiz-adv-x="1620" 
d="M1475 -471h-324v1626h-664v-1626h-323v1905h1311v-1905z" />
    <glyph glyph-name="uniF006" unicode="&#xf006;" horiz-adv-x="1417" 
d="M1352 791h-222v-414q0 -144 87 -144q45 0 94 23v-242q-84 -32 -176 -32q-320 0 -320 342v467h-248v-480q0 -211 -41 -311h-321q47 121 47 328v463q-121 -2 -242 -84v254q88 63 246 63h1096v-233z" />
    <glyph glyph-name="integral" unicode="&#x222b;" horiz-adv-x="1180" 
d="M1016 1274q-63 24 -117 24q-151 0 -151 -165v-1231q0 -171 -108 -277q-114 -114 -314 -114q-94 0 -160 20v246q63 -25 115 -25q151 0 151 166v1233q0 170 108 276q115 113 316 113q94 0 160 -20v-246z" />
    <glyph glyph-name="ordfeminine" unicode="&#xaa;" horiz-adv-x="840" 
d="M739 717h-213v86h-4q-86 -107 -219 -107q-101 0 -166 61.5t-65 157.5q0 211 262 244l192 25q0 114 -139 114q-117 0 -246 -77v176q125 57 287 57q311 0 311 -299v-438zM526 1055l-123 -17q-116 -15 -116 -96q0 -88 104 -88q54 0 94.5 39t40.5 92v70z" />
    <glyph glyph-name="ordmasculine" unicode="&#xba;" horiz-adv-x="934" 
d="M858 1087q0 -183 -106.5 -287t-292.5 -104q-189 0 -292 104q-97 99 -97 273q0 184 114 286q108 95 287 95q189 0 293 -110q94 -99 94 -257zM625 1079q0 201 -160 201q-164 0 -164 -203q0 -207 164 -207q160 0 160 209z" />
    <glyph glyph-name="uni2126" unicode="&#x2126;" horiz-adv-x="1568" 
d="M1485 834q0 -378 -348 -572h346v-262h-600v260q262 226 262 526q0 188 -110 296q-99 98 -247 98q-147 0 -246 -93q-118 -109 -118 -313q0 -176 87 -319q56 -91 171 -195v-260h-600v262h340q-338 196 -338 567q0 292 204 465q193 164 494 164q320 0 514 -177
q189 -173 189 -447z" />
    <glyph glyph-name="ae" unicode="&#xe6;" horiz-adv-x="1696" 
d="M1640 422h-667q20 -223 282 -223q160 0 297 80v-226q-156 -78 -378 -78q-270 0 -398 179h-4q-141 -179 -362 -179q-168 0 -260.5 83t-92.5 229q0 145 96 233t277 103l256 20q0 191 -184 191q-175 0 -344 -107v236q187 86 370 86q234 0 324 -134h4q131 134 326 134
q213 0 335.5 -133.5t122.5 -364.5v-129zM1348 616q0 220 -177 220q-75 0 -132 -62t-66 -158h375zM686 414v45l-156 -13q-184 -14 -184 -131q0 -49 38.5 -82.5t102.5 -33.5q84 0 141.5 58.5t57.5 156.5z" />
    <glyph glyph-name="oslash" unicode="&#xf8;" horiz-adv-x="1251" 
d="M1206 1010l-139 -146q113 -143 113 -338q0 -260 -149 -404.5t-410 -144.5q-199 0 -328 86l-135 -141l-119 107q55 57 137 143q-104 141 -104 338q0 259 159 403q151 138 406 138q179 0 311 -82l139 147zM772 791q-58 40 -141 40q-258 0 -258 -317q0 -72 18 -121zM881 520
q0 76 -19 131l-393 -409q61 -45 160 -45q252 0 252 323z" />
    <glyph glyph-name="questiondown" unicode="&#xbf;" horiz-adv-x="897" 
d="M694 883q0 -72 -52.5 -117t-131.5 -45q-81 0 -132.5 45.5t-51.5 116.5q0 70 51 118t133 48q81 0 132.5 -49t51.5 -117zM31 -70q0 208 209 379q78 65 104 101q41 56 41 133v55h260v-84q0 -183 -143 -303q-88 -73 -119 -119q-37 -53 -37 -119q0 -61 46 -102t120 -41
q166 0 313 131v-301q-153 -92 -346 -92q-226 0 -344 108q-104 96 -104 254z" />
    <glyph glyph-name="exclamdown" unicode="&#xa1;" horiz-adv-x="670" 
d="M518 883q0 -72 -51.5 -117t-130.5 -45q-81 0 -132.5 46t-51.5 116t51 118t133 48q80 0 131 -48.5t51 -117.5zM504 -408h-332l37 990h256z" />
    <glyph glyph-name="logicalnot" unicode="&#xac;" horiz-adv-x="1448" 
d="M1212 266h-202v389h-772v203h974v-592z" />
    <glyph glyph-name="radical" unicode="&#x221a;" horiz-adv-x="1331" 
d="M1196 1516l-408 -1516h-196l-320 729h-182v168h350l242 -567l317 1186h197z" />
    <glyph glyph-name="florin" unicode="&#x192;" horiz-adv-x="1178" 
d="M1044 1174q-66 30 -133 30q-125 0 -147 -137l-23 -137h158v-215h-192l-91 -594q-28 -184 -128 -298q-113 -128 -289 -128q-48 0 -121 20v242q39 -20 92 -20q123 0 154 202l88 576h-105v215h142l22 149q25 164 128 262q112 105 286 105q84 0 159 -23v-249z" />
    <glyph glyph-name="approxequal" unicode="&#x2248;" horiz-adv-x="1450" 
d="M1255 997q-5 -165 -86 -263q-84 -101 -227 -101q-106 0 -258 88q-110 63 -156 63q-123 0 -129 -157h-204q5 160 80 256q83 106 235 106q114 0 240 -75q125 -76 180 -76q53 0 86 44.5t35 114.5h204zM1255 549q-5 -165 -86 -263q-84 -102 -227 -102q-102 0 -258 90
q-110 64 -156 64q-123 0 -129 -162h-204q5 161 80 258q84 109 235 109q114 0 242 -77q127 -77 178 -77q53 0 86 45t35 115h204z" />
    <glyph glyph-name="uni2206" unicode="&#x2206;" horiz-adv-x="1440" 
d="M1379 0h-1343v125l486 1309h382l475 -1309v-125zM994 262l-253 764q-28 85 -34 143h-8q-7 -65 -32 -141l-255 -766h582z" />
    <glyph glyph-name="guillemotleft" unicode="&#xab;" horiz-adv-x="1190" 
d="M1137 201h-269l-327 336l327 344h269l-334 -344zM651 201h-268l-330 336l330 344h266l-334 -344z" />
    <glyph glyph-name="guillemotright" unicode="&#xbb;" horiz-adv-x="1190" 
d="M1137 537l-328 -336h-268l333 336l-331 344h266zM651 537l-329 -336h-269l336 336l-334 344h267z" />
    <glyph glyph-name="ellipsis" unicode="&#x2026;" horiz-adv-x="1868" 
d="M1741 143q0 -72 -51.5 -119t-135.5 -47q-79 0 -130.5 49t-51.5 117q0 72 52.5 118t131.5 46q81 0 133 -46.5t52 -117.5zM1118 143q0 -72 -51.5 -119t-134.5 -47q-79 0 -129.5 49t-50.5 117q0 73 51.5 118.5t130.5 45.5q80 0 132 -46.5t52 -117.5zM496 143
q0 -72 -51.5 -119t-135.5 -47q-79 0 -129.5 49t-50.5 117q0 73 51.5 118.5t130.5 45.5q81 0 133 -46.5t52 -117.5z" />
    <glyph glyph-name="uni00A0" unicode="&#xa0;" horiz-adv-x="565" 
d="M0 0z" />
    <glyph glyph-name="Agrave" unicode="&#xc0;" horiz-adv-x="1440" 
d="M1425 0h-352l-102 319h-510l-101 -319h-350l522 1434h383zM897 567l-154 482q-18 57 -24 129h-8q-6 -66 -25 -125l-156 -486h367zM916 1567h-227l-314 323h281z" />
    <glyph glyph-name="Atilde" unicode="&#xc3;" horiz-adv-x="1440" 
d="M1425 0h-352l-102 319h-510l-101 -319h-350l522 1434h383zM897 567l-154 482q-18 57 -24 129h-8q-6 -66 -25 -125l-156 -486h367zM1077 1878q0 -140 -55.5 -216.5t-151.5 -76.5q-86 0 -168 43q-90 47 -123 47q-80 0 -80 -108h-141q0 137 54 215t155 78q80 0 168 -49
q76 -44 120 -44q78 0 78 111h144z" />
    <glyph glyph-name="Otilde" unicode="&#xd5;" horiz-adv-x="1552" 
d="M1479 727q0 -340 -197.5 -546t-511.5 -206q-305 0 -499 198q-197 201 -197 525q0 337 193 546q197 214 526 214q305 0 495.5 -200t190.5 -531zM1139 709q0 226 -98 350q-94 121 -257 121q-174 0 -274 -133q-96 -127 -96 -332q0 -220 106 -345q99 -116 256 -116
q161 0 259 113q104 121 104 342zM1147 1878q0 -140 -55.5 -216.5t-151.5 -76.5q-86 0 -168 43q-90 47 -123 47q-80 0 -80 -108h-141q0 137 54 215t155 78q80 0 168 -49q76 -44 120 -44q78 0 78 111h144z" />
    <glyph glyph-name="OE" unicode="&#x152;" horiz-adv-x="1925" 
d="M1860 0h-828q-27 0 -117 -13q-90 -12 -157 -12q-312 0 -502 210q-182 201 -182 513q0 339 192.5 549.5t517.5 210.5q63 0 152 -12q88 -12 108 -12h783v-263h-504v-323h469v-264h-469v-322h537v-262zM991 305v823q-85 52 -209 52q-172 0 -272 -136q-94 -128 -94 -333
q0 -213 106 -338q100 -119 256 -119q115 0 213 51z" />
    <glyph glyph-name="oe" unicode="&#x153;" horiz-adv-x="1892" 
d="M1837 422h-670q15 -223 283 -223q167 0 295 80v-228q-142 -76 -346 -76q-253 0 -391 189h-4q-137 -187 -408 -187q-227 0 -370 135q-154 144 -154 396q0 258 155 405q146 138 381 138q146 0 258 -59q91 -47 135 -118h5q117 175 376 175q219 0 341 -142q114 -132 114 -350
v-135zM1542 616q0 220 -174 220q-84 0 -141 -72q-50 -62 -60 -148h375zM858 516q0 136 -59 213.5t-168 77.5q-111 0 -173 -74q-65 -78 -65 -221q0 -293 236 -293q229 0 229 297z" />
    <glyph glyph-name="endash" unicode="&#x2013;" horiz-adv-x="1024" 
d="M1024 436h-1024v221h1024v-221z" />
    <glyph glyph-name="emdash" unicode="&#x2014;" horiz-adv-x="2048" 
d="M2048 436h-2048v221h2048v-221z" />
    <glyph glyph-name="quotedblleft" unicode="&#x201c;" horiz-adv-x="1010" 
d="M897 1468l-113 -444h-272l190 444h195zM481 1468l-110 -444h-275l189 444h196z" />
    <glyph glyph-name="quotedblright" unicode="&#x201d;" horiz-adv-x="1010" 
d="M915 1468l-190 -444h-197l113 444h274zM500 1468l-193 -444h-194l114 444h273z" />
    <glyph glyph-name="quoteleft" unicode="&#x2018;" horiz-adv-x="594" 
d="M481 1468l-110 -444h-275l189 444h196z" />
    <glyph glyph-name="quoteright" unicode="&#x2019;" horiz-adv-x="594" 
d="M500 1468l-193 -444h-194l114 444h273z" />
    <glyph glyph-name="divide" unicode="&#xf7;" horiz-adv-x="1448" 
d="M868 985q0 -63 -43 -103q-39 -36 -94 -36q-58 0 -99.5 40t-41.5 97q0 60 39 102.5t102 42.5q62 0 99.5 -40t37.5 -103zM1212 485h-974v203h974v-203zM864 184q0 -63 -43 -102q-39 -35 -94 -35q-59 0 -100 39.5t-41 95.5q0 61 39 103.5t102 42.5q62 0 99.5 -40.5
t37.5 -103.5z" />
    <glyph glyph-name="lozenge" unicode="&#x25ca;" horiz-adv-x="1203" 
d="M1128 717l-473 -717h-114l-469 715l469 719h114zM899 717l-299 471l-299 -471l299 -471z" />
    <glyph glyph-name="ydieresis" unicode="&#xff;" 
d="M1108 1024l-416 -1106q-150 -399 -452 -399q-110 0 -189 26v252q63 -37 137 -37q122 0 170 115l54 127l-416 1022h350l191 -623q19 -63 28 -137h4q10 60 33 135l193 625h313zM947 1323q0 -59 -42 -98t-112 -39q-68 0 -110.5 39.5t-42.5 97.5q0 60 43.5 98.5t109.5 38.5
q67 0 110.5 -39t43.5 -98zM488 1323q0 -59 -42 -98t-111 -39q-68 0 -111 39.5t-43 97.5q0 60 43.5 98.5t110.5 38.5t110 -38.5t43 -98.5z" />
    <glyph glyph-name="Ydieresis" unicode="&#x178;" horiz-adv-x="1243" 
d="M1245 1434l-467 -924v-510h-323v504l-455 930h369l231 -535q6 -13 33 -117h4q13 73 31 113l235 539h342zM1012 1704q0 -59 -42 -98t-112 -39q-68 0 -110.5 39.5t-42.5 97.5q0 60 43.5 98.5t109.5 38.5q67 0 110.5 -39t43.5 -98zM553 1704q0 -59 -42 -98t-111 -39
q-68 0 -111 39.5t-43 97.5q0 60 43.5 98.5t110.5 38.5t110 -38.5t43 -98.5z" />
    <glyph glyph-name="fraction" unicode="&#x2215;" horiz-adv-x="719" 
d="M932 1434l-891 -1434h-244l891 1434h244z" />
    <glyph glyph-name="Euro" unicode="&#x20ac;" horiz-adv-x="1178" 
d="M1094 45q-130 -72 -308 -72q-454 0 -555 480h-122v190h96q-2 11 -2 27v32q0 40 4 82h-98v187h127q58 237 211 362t378 125q154 0 269 -55v-260q-118 88 -254 88q-108 0 -192 -70t-120 -190h426v-187h-456q-4 -36 -4 -82v-29q0 -14 2 -30h458v-190h-428q75 -252 299 -252
q143 0 269 90v-246z" />
    <glyph glyph-name="guilsinglleft" unicode="&#x2039;" horiz-adv-x="705" 
d="M651 201h-268l-330 336l330 344h268l-334 -344z" />
    <glyph glyph-name="guilsinglright" unicode="&#x203a;" horiz-adv-x="705" 
d="M651 537l-329 -336h-269l334 336l-332 344h267z" />
    <glyph glyph-name="uniF001" unicode="&#xf001;" horiz-adv-x="1366" 
d="M1260 1350q0 -71 -50 -117.5t-133 -46.5q-80 0 -131 47.5t-51 116.5q0 72 51.5 116.5t130.5 44.5q81 0 132 -45.5t51 -115.5zM1233 0h-315v1024h315v-1024zM786 1272q-58 28 -114 28q-142 0 -142 -165v-111h232v-229h-232v-795h-317v795h-172v229h172v127q0 170 106 276
q113 113 312 113q91 0 155 -20v-248z" />
    <glyph glyph-name="uniF001" unicode="&#xfb01;" horiz-adv-x="1366" 
d="M1260 1350q0 -71 -50 -117.5t-133 -46.5q-80 0 -131 47.5t-51 116.5q0 72 51.5 116.5t130.5 44.5q81 0 132 -45.5t51 -115.5zM1233 0h-315v1024h315v-1024zM786 1272q-58 28 -114 28q-142 0 -142 -165v-111h232v-229h-232v-795h-317v795h-172v229h172v127q0 170 106 276
q113 113 312 113q91 0 155 -20v-248z" />
    <glyph glyph-name="uniF002" unicode="&#xf002;" horiz-adv-x="1366" 
d="M1233 0h-315v1516h315v-1516zM786 1272q-58 28 -114 28q-142 0 -142 -165v-111h232v-229h-232v-795h-317v795h-172v229h172v127q0 170 106 276q113 113 312 113q91 0 155 -20v-248z" />
    <glyph glyph-name="uniF002" unicode="&#xfb02;" horiz-adv-x="1366" 
d="M1233 0h-315v1516h315v-1516zM786 1272q-58 28 -114 28q-142 0 -142 -165v-111h232v-229h-232v-795h-317v795h-172v229h172v127q0 170 106 276q113 113 312 113q91 0 155 -20v-248z" />
    <glyph glyph-name="daggerdbl" unicode="&#x2021;" horiz-adv-x="831" 
d="M766 555h-248v-313h-209v313h-248v174h248v227h-248v179h248v299h209v-299h248v-179h-248v-227h248v-174z" />
    <glyph glyph-name="periodcentered" unicode="&#x2219;" horiz-adv-x="555" 
d="M463 653q0 -73 -52.5 -119.5t-136.5 -46.5q-79 0 -131 50q-51 47 -51 116q0 73 53.5 118.5t133.5 45.5t132 -46.5t52 -117.5z" />
    <glyph glyph-name="quotesinglbase" unicode="&#x201a;" horiz-adv-x="594" 
d="M477 219l-192 -444h-195l115 444h272z" />
    <glyph glyph-name="quotedblbase" unicode="&#x201e;" horiz-adv-x="1010" 
d="M893 219l-193 -444h-194l112 444h275zM477 219l-192 -444h-195l115 444h272z" />
    <glyph glyph-name="perthousand" unicode="&#x2030;" horiz-adv-x="2572" 
d="M2482 367q0 -179 -102 -285q-100 -102 -262 -102q-152 0 -246 96t-94 262q0 181 100 285t264 104q158 0 248 -91q92 -95 92 -269zM1686 367q0 -180 -100.5 -283.5t-262.5 -103.5q-151 0 -244 95q-96 97 -96 263q0 181 100 285t265 104q157 0 246 -91q92 -95 92 -269z
M1477 1434l-934 -1434h-244l934 1434h244zM793 1092q0 -179 -102 -284q-98 -101 -261 -101q-151 0 -244 95q-96 97 -96 263q0 181 100 285t265 104q157 0 247.5 -94t90.5 -268zM2273 356q0 99 -43 151q-37 44 -94 44q-145 0 -145 -203q0 -192 139 -192q143 0 143 200z
M1477 356q0 99 -43 151q-37 44 -95 44q-145 0 -145 -203q0 -192 141 -192q142 0 142 200zM584 1083q0 195 -135 195q-146 0 -146 -203q0 -192 139 -192q142 0 142 200z" />
    <glyph glyph-name="Acircumflex" unicode="&#xc2;" horiz-adv-x="1440" 
d="M1425 0h-352l-102 319h-510l-101 -319h-350l522 1434h383zM897 567l-154 482q-18 57 -24 129h-8q-6 -66 -25 -125l-156 -486h367zM566 1567h-207l235 325h248l236 -325h-207l-158 188z" />
    <glyph glyph-name="Ecircumflex" unicode="&#xca;" horiz-adv-x="1090" 
d="M1024 0h-860v1434h827v-263h-504v-319h469v-262h-469v-328h537v-262zM420 1567h-207l235 325h248l236 -325h-207l-158 188z" />
    <glyph glyph-name="Aacute" unicode="&#xc1;" horiz-adv-x="1440" 
d="M1425 0h-352l-102 319h-510l-101 -319h-350l522 1434h383zM897 567l-154 482q-18 57 -24 129h-8q-6 -66 -25 -125l-156 -486h367zM1036 1890l-313 -323h-228l260 323h281z" />
    <glyph glyph-name="Edieresis" unicode="&#xcb;" horiz-adv-x="1090" 
d="M1024 0h-860v1434h827v-263h-504v-319h469v-262h-469v-328h537v-262zM966 1704q0 -59 -42 -98t-112 -39q-68 0 -110.5 39.5t-42.5 97.5q0 60 43.5 98.5t109.5 38.5q67 0 110.5 -39t43.5 -98zM507 1704q0 -59 -42 -98t-111 -39q-68 0 -111 39.5t-43 97.5q0 60 43.5 98.5
t110.5 38.5t110 -38.5t43 -98.5z" />
    <glyph glyph-name="Egrave" unicode="&#xc8;" horiz-adv-x="1090" 
d="M1024 0h-860v1434h827v-263h-504v-319h469v-262h-469v-328h537v-262zM766 1567h-227l-314 323h281z" />
    <glyph glyph-name="Iacute" unicode="&#xcd;" horiz-adv-x="649" 
d="M487 0h-323v1434h323v-1434zM651 1890l-313 -323h-228l260 323h281z" />
    <glyph glyph-name="Icircumflex" unicode="&#xce;" horiz-adv-x="649" 
d="M487 0h-323v1434h323v-1434zM179 1567h-207l235 325h248l236 -325h-207l-158 188z" />
    <glyph glyph-name="Idieresis" unicode="&#xcf;" horiz-adv-x="649" 
d="M487 0h-323v1434h323v-1434zM713 1704q0 -59 -42 -98t-112 -39q-68 0 -110.5 39.5t-42.5 97.5q0 60 43.5 98.5t109.5 38.5q67 0 110.5 -39t43.5 -98zM254 1704q0 -59 -42 -98t-111 -39q-68 0 -111 39.5t-43 97.5q0 60 43.5 98.5t110.5 38.5t110 -38.5t43 -98.5z" />
    <glyph glyph-name="Igrave" unicode="&#xcc;" horiz-adv-x="649" 
d="M487 0h-323v1434h323v-1434zM532 1567h-227l-314 323h281z" />
    <glyph glyph-name="Oacute" unicode="&#xd3;" horiz-adv-x="1552" 
d="M1479 727q0 -340 -197.5 -546t-511.5 -206q-305 0 -499 198q-197 201 -197 525q0 337 193 546q197 214 526 214q305 0 495.5 -200t190.5 -531zM1139 709q0 226 -98 350q-94 121 -257 121q-174 0 -274 -133q-96 -127 -96 -332q0 -220 106 -345q99 -116 256 -116
q161 0 259 113q104 121 104 342zM1110 1890l-313 -323h-228l260 323h281z" />
    <glyph glyph-name="Ocircumflex" unicode="&#xd4;" horiz-adv-x="1552" 
d="M1479 727q0 -340 -197.5 -546t-511.5 -206q-305 0 -499 198q-197 201 -197 525q0 337 193 546q197 214 526 214q305 0 495.5 -200t190.5 -531zM1139 709q0 226 -98 350q-94 121 -257 121q-174 0 -274 -133q-96 -127 -96 -332q0 -220 106 -345q99 -116 256 -116
q161 0 259 113q104 121 104 342zM637 1567h-207l235 325h248l236 -325h-207l-158 188z" />
    <glyph glyph-name="Ograve" unicode="&#xd2;" horiz-adv-x="1552" 
d="M1479 727q0 -340 -197.5 -546t-511.5 -206q-305 0 -499 198q-197 201 -197 525q0 337 193 546q197 214 526 214q305 0 495.5 -200t190.5 -531zM1139 709q0 226 -98 350q-94 121 -257 121q-174 0 -274 -133q-96 -127 -96 -332q0 -220 106 -345q99 -116 256 -116
q161 0 259 113q104 121 104 342zM971 1567h-227l-314 323h281z" />
    <glyph glyph-name="Uacute" unicode="&#xda;" horiz-adv-x="1481" 
d="M1333 621q0 -646 -602 -646q-584 0 -584 631v828h324v-832q0 -348 272 -348q267 0 267 336v844h323v-813zM1088 1890l-313 -323h-228l260 323h281z" />
    <glyph glyph-name="Ucircumflex" unicode="&#xdb;" horiz-adv-x="1481" 
d="M1333 621q0 -646 -602 -646q-584 0 -584 631v828h324v-832q0 -348 272 -348q267 0 267 336v844h323v-813zM587 1567h-207l235 325h248l236 -325h-207l-158 188z" />
    <glyph glyph-name="Ugrave" unicode="&#xd9;" horiz-adv-x="1481" 
d="M1333 621q0 -646 -602 -646q-584 0 -584 631v828h324v-832q0 -348 272 -348q267 0 267 336v844h323v-813zM920 1567h-227l-314 323h281z" />
    <glyph glyph-name="dotlessi" unicode="&#x131;" horiz-adv-x="582" 
d="M449 0h-316v1024h316v-1024z" />
    <glyph glyph-name="circumflex" unicode="&#x2c6;" horiz-adv-x="784" 
d="M238 1186h-207l235 325h248l236 -325h-207l-158 188z" />
    <glyph glyph-name="tilde" unicode="&#x2dc;" horiz-adv-x="784" 
d="M754 1497q0 -140 -55.5 -216.5t-151.5 -76.5q-86 0 -168 43q-90 47 -123 47q-80 0 -80 -108h-141q0 137 54 215t155 78q80 0 168 -49q76 -44 120 -44q78 0 78 111h144z" />
    <glyph glyph-name="macron" unicode="&#x2c9;" horiz-adv-x="690" 
d="M637 1186h-586v172h586v-172z" />
    <glyph glyph-name="breve" unicode="&#x2d8;" horiz-adv-x="709" 
d="M692 1493q-11 -138 -98 -220q-91 -87 -242 -87q-147 0 -238.5 86.5t-95.5 220.5h179q17 -135 159 -135q137 0 156 135h180z" />
    <glyph glyph-name="dotaccent" unicode="&#x2d9;" horiz-adv-x="518" 
d="M412 1323q0 -58 -42 -97.5t-110 -39.5q-67 0 -110.5 40t-43.5 97q0 59 44 97t110 38q67 0 109.5 -38t42.5 -97z" />
    <glyph glyph-name="ring" unicode="&#x2da;" horiz-adv-x="555" 
d="M518 1407q0 -102 -76 -164q-70 -57 -168 -57q-101 0 -168 59t-67 156q0 105 76 167q67 54 164 54q107 0 173 -60t66 -155zM377 1405q0 40 -28 67t-75 27q-96 0 -96 -94t96 -94q47 0 75 28t28 66z" />
    <glyph glyph-name="cedilla" unicode="&#xb8;" horiz-adv-x="440" 
d="M457 -248q0 -207 -318 -207q-45 0 -88 4v138q38 -6 72 -6q123 0 123 73q0 66 -111 66q-12 0 -37 -2v182h172v-82q187 -8 187 -166z" />
    <glyph glyph-name="hungarumlaut" unicode="&#x2dd;" horiz-adv-x="831" 
d="M870 1505l-252 -319h-210l213 319h249zM492 1505l-248 -319h-211l211 319h248z" />
    <glyph glyph-name="ogonek" unicode="&#x2db;" horiz-adv-x="545" 
d="M289 -349q-87 0 -139 49t-52 126q0 84 73 174h155q-60 -91 -60 -160q0 -53 58 -53q48 0 119 26v-136q-77 -26 -154 -26z" />
    <glyph glyph-name="caron" unicode="&#x2c7;" horiz-adv-x="784" 
d="M754 1511l-238 -325h-248l-235 325h205l155 -188l156 188h205z" />
    <glyph glyph-name="Lslash" unicode="&#x141;" horiz-adv-x="1047" 
d="M1018 0h-854v467l-162 -86v264l162 84v705h323v-549l283 149v-262l-283 -149v-361h531v-262z" />
    <glyph glyph-name="lslash" unicode="&#x142;" horiz-adv-x="643" 
d="M610 754l-135 -86v-668h-315v473l-131 -84v258l131 82v787h315v-592l135 86v-256z" />
    <glyph glyph-name="Scaron" unicode="&#x160;" horiz-adv-x="1098" 
d="M1034 403q0 -178 -117 -290q-144 -138 -440 -138q-223 0 -371 80v320q171 -146 379 -146q108 0 163 47q46 40 46 99q0 69 -68 126q-54 44 -198 111q-328 155 -328 420q0 193 142.5 309.5t380.5 116.5q209 0 348 -55v-299q-145 100 -330 100q-92 0 -146.5 -40t-54.5 -105
q0 -69 48 -115q45 -43 174 -104q191 -92 273 -179q99 -106 99 -258zM949 1892l-238 -325h-248l-235 325h205l155 -188l156 188h205z" />
    <glyph glyph-name="scaron" unicode="&#x161;" horiz-adv-x="901" 
d="M840 313q0 -148 -109 -238q-120 -100 -340 -100q-162 0 -297 52v256q154 -93 293 -93q150 0 150 93q0 41 -36 67t-157 72q-125 47 -182 108q-68 73 -68 193q0 147 116 236.5t314 89.5q127 0 254 -41v-244q-119 70 -250 70q-125 0 -125 -86q0 -46 35 -74q31 -24 125 -58
q138 -49 202 -112q75 -74 75 -191zM813 1511l-238 -325h-248l-235 325h205l155 -188l156 188h205z" />
    <glyph glyph-name="Zcaron" unicode="&#x17d;" horiz-adv-x="1243" 
d="M1194 1253l-719 -991h721v-262h-1155v186l735 985h-682v263h1100v-181zM1012 1892l-238 -325h-248l-235 325h205l155 -188l156 188h205z" />
    <glyph glyph-name="zcaron" unicode="&#x17e;" horiz-adv-x="981" 
d="M940 868l-487 -635h491v-233h-919v131l514 660h-463v233h864v-156zM887 1511l-238 -325h-248l-235 325h205l155 -188l156 188h205z" />
    <glyph glyph-name="brokenbar" unicode="&#xa6;" horiz-adv-x="668" 
d="M461 684h-252v883h252v-883zM461 -481h-252v895h252v-895z" />
    <glyph glyph-name="Eth" unicode="&#xd0;" horiz-adv-x="1509" 
d="M1436 735q0 -334 -208.5 -534.5t-555.5 -200.5h-508v586h-164v266h164v582h508q764 0 764 -699zM1096 731q0 201 -114 318q-119 122 -337 122h-158v-319h271v-266h-271v-324h160q212 0 332 129q117 125 117 340z" />
    <glyph glyph-name="eth" unicode="&#xf0;" horiz-adv-x="1214" 
d="M1143 563q0 -258 -147 -421q-151 -167 -398 -167q-254 0 -394 151q-132 144 -132 388q0 230 130 376q133 150 349 150q116 0 205 -75l4 2q-85 148 -195 237l-291 -143l-81 141l241 115q-153 121 -270 199h352q18 -12 131 -97l273 133l77 -137l-215 -104
q361 -291 361 -748zM821 520q0 287 -209 287q-104 0 -161.5 -79t-57.5 -214q0 -142 59 -221q56 -76 156 -76q99 0 156 81.5t57 221.5z" />
    <glyph glyph-name="Yacute" unicode="&#xdd;" horiz-adv-x="1243" 
d="M1245 1434l-467 -924v-510h-323v504l-455 930h369l231 -535q6 -13 33 -117h4q13 73 31 113l235 539h342zM987 1890l-313 -323h-228l260 323h281z" />
    <glyph glyph-name="yacute" unicode="&#xfd;" 
d="M1108 1024l-416 -1106q-150 -399 -452 -399q-110 0 -189 26v252q63 -37 137 -37q122 0 170 115l54 127l-416 1022h350l191 -623q19 -63 28 -137h4q10 60 33 135l193 625h313zM917 1509l-313 -323h-228l260 323h281z" />
    <glyph glyph-name="Thorn" unicode="&#xde;" horiz-adv-x="1257" 
d="M1212 766q0 -212 -149 -345q-157 -140 -422 -140h-154v-281h-323v1434h323v-211h183q542 0 542 -457zM872 754q0 221 -258 221h-127v-447h127q258 0 258 226z" />
    <glyph glyph-name="thorn" unicode="&#xfe;" horiz-adv-x="1270" 
d="M1198 541q0 -256 -126.5 -411t-336.5 -155q-186 0 -282 144h-4v-590h-316v1987h316v-646h4q115 179 329 179q210 0 319 -151q97 -135 97 -357zM874 537q0 270 -210 270q-96 0 -158 -73t-62 -195v-82q0 -106 56 -173t147 -67q109 0 168 84t59 236z" />
    <glyph glyph-name="minus" unicode="&#x2212;" horiz-adv-x="1448" 
d="M1212 485h-974v203h974v-203z" />
    <glyph glyph-name="multiply" unicode="&#xd7;" horiz-adv-x="1448" 
d="M1210 248l-145 -144l-338 340l-340 -340l-145 146l340 336l-340 340l141 145l344 -340l342 340l139 -151l-338 -334z" />
    <glyph glyph-name="onesuperior" unicode="&#xb9;" horiz-adv-x="807" 
d="M721 584h-563v172h176v477l-191 -41v180l406 82v-698h172v-172z" />
    <glyph glyph-name="twosuperior" unicode="&#xb2;" horiz-adv-x="827" 
d="M721 584h-604v157l248 234q67 63 89 99q25 41 25 93q0 41 -27 68q-30 29 -77 29q-99 0 -211 -103v215q118 78 250 78q134 0 214.5 -68t80.5 -190q0 -94 -66 -184q-43 -59 -151 -154l-105 -92v-4h334v-178z" />
    <glyph glyph-name="threesuperior" unicode="&#xb3;" horiz-adv-x="827" 
d="M715 836q0 -123 -98 -198t-257 -75q-133 0 -229 53v181q106 -68 221 -68q150 0 150 102q0 103 -172 103h-117v166h113q149 0 149 96q0 90 -119 90q-106 0 -198 -65v176q99 57 239 57q138 0 216 -64q73 -60 73 -157q0 -147 -143 -195v-4q172 -41 172 -198z" />
    <glyph glyph-name="onehalf" unicode="&#xbd;" horiz-adv-x="1976" 
d="M1843 0h-604v158l248 233q67 64 89 99q26 41 26 94q0 41 -28.5 68.5t-76.5 27.5q-99 0 -211 -102v215q118 77 248 77q134 0 213 -66q82 -69 82 -192q0 -94 -65 -183q-43 -60 -150 -155l-105 -92v-4h334v-178zM1505 1434l-891 -1434h-243l891 1434h243zM676 584h-563v172
h176v477l-191 -41v180l406 82v-698h172v-172z" />
    <glyph glyph-name="onequarter" unicode="&#xbc;" horiz-adv-x="1950" 
d="M1845 176h-110v-176h-213v176h-396v141l351 533h258v-518h110v-156zM1505 1434l-891 -1434h-243l891 1434h243zM676 584h-563v172h176v477l-191 -41v180l406 82v-698h172v-172zM1526 678h-8q-15 -36 -39 -76l-168 -270h211v262q0 47 4 84z" />
    <glyph glyph-name="threequarters" unicode="&#xbe;" horiz-adv-x="2005" 
d="M1892 176h-110v-176h-213v176h-393v141l350 533h256v-518h110v-156zM1565 1434l-891 -1434h-244l891 1434h244zM715 836q0 -123 -98 -198t-257 -75q-133 0 -229 53v181q106 -68 221 -68q150 0 150 102q0 103 -172 103h-117v166h113q149 0 149 96q0 90 -119 90
q-106 0 -198 -65v176q99 57 239 57q138 0 216 -64q73 -60 73 -157q0 -147 -143 -195v-4q172 -41 172 -198zM1575 678h-8q-14 -36 -39 -76l-168 -270h209v262q0 29 6 84z" />
    <glyph glyph-name="uni00AD" unicode="&#xad;" horiz-adv-x="827" 
d="M690 436h-547v221h547v-221z" />
    <glyph glyph-name="uni00AF" unicode="&#xaf;" horiz-adv-x="850" 
d="M0 1397v119h850v-119h-850z" />
    <glyph glyph-name="uni00B7" unicode="&#xb7;" horiz-adv-x="555" 
d="M463 653q0 -73 -52.5 -119.5t-136.5 -46.5q-79 0 -131 50q-51 47 -51 116q0 73 53.5 118.5t133.5 45.5t132 -46.5t52 -117.5z" />
    <glyph glyph-name="uni2044" unicode="&#x2044;" horiz-adv-x="719" 
d="M932 1434l-891 -1434h-244l891 1434h244z" />
    <glyph glyph-name="currency" unicode="&#xa4;" horiz-adv-x="1139" 
d="M1087 358l-141 -145l-143 141q-107 -65 -234 -65t-233 65l-143 -141l-142 145l142 138q-66 109 -66 229q0 122 66 229l-142 140l142 145l143 -141q106 65 233 65t234 -65l143 141l141 -145l-141 -140q68 -110 68 -229q0 -117 -68 -229zM811 727q0 99 -73.5 168.5
t-168.5 69.5q-99 0 -169 -69.5t-70 -168.5t70 -168.5t169 -69.5q100 0 171 70t71 168z" />
    <glyph glyph-name="foursuperior" unicode="&#x2074;" horiz-adv-x="856" 
d="M786 760h-110v-176h-213v176h-395v141l350 533h258v-519h110v-155zM467 1262h-8q-14 -36 -39 -76l-168 -271h211v263q0 47 4 84z" />
    <glyph glyph-name="Amacron" unicode="&#x100;" horiz-adv-x="1440" 
d="M1425 0h-352l-102 319h-510l-101 -319h-350l522 1434h383zM897 567l-154 482q-18 57 -24 129h-8q-6 -66 -25 -125l-156 -486h367zM1013 1567h-586v172h586v-172z" />
    <glyph glyph-name="amacron" unicode="&#x101;" 
d="M985 0h-299v147h-4q-103 -172 -305 -172q-152 0 -238 88q-82 84 -82 222q0 297 353 344l278 37q0 168 -182 168q-184 0 -348 -109v238q62 32 171 57q120 29 218 29q438 0 438 -437v-612zM688 485l-186 -24q-154 -20 -154 -139q0 -53 37 -88t102 -35q89 0 145 61.5
t56 155.5v69zM864 1186h-586v172h586v-172z" />
    <glyph glyph-name="Abreve" unicode="&#x102;" horiz-adv-x="1440" 
d="M1425 0h-352l-102 319h-510l-101 -319h-350l522 1434h383zM897 567l-154 482q-18 57 -24 129h-8q-6 -66 -25 -125l-156 -486h367zM1057 1874q-11 -138 -98 -220q-91 -87 -242 -87q-147 0 -238.5 86.5t-95.5 220.5h179q17 -135 159 -135q137 0 156 135h180z" />
    <glyph glyph-name="abreve" unicode="&#x103;" 
d="M985 0h-299v147h-4q-103 -172 -305 -172q-152 0 -238 88q-82 84 -82 222q0 297 353 344l278 37q0 168 -182 168q-184 0 -348 -109v238q62 32 171 57q120 29 218 29q438 0 438 -437v-612zM688 485l-186 -24q-154 -20 -154 -139q0 -53 37 -88t102 -35q89 0 145 61.5
t56 155.5v69zM908 1493q-11 -138 -98 -220q-91 -87 -242 -87q-147 0 -238.5 86.5t-95.5 220.5h179q17 -135 159 -135q137 0 156 135h180z" />
    <glyph glyph-name="Aogonek" unicode="&#x104;" horiz-adv-x="1440" 
d="M1345 -323q-77 -26 -154 -26q-86 0 -138.5 49t-52.5 126q0 84 73 174l-102 319h-510l-101 -319h-350l522 1434h383l510 -1434h-197q-60 -91 -60 -160q0 -53 58 -53q48 0 119 26v-136zM897 567l-154 482q-18 57 -24 129h-8q-6 -66 -25 -125l-156 -486h367z" />
    <glyph glyph-name="aogonek" unicode="&#x105;" 
d="M958 -323q-77 -26 -154 -26q-87 0 -139 49t-52 126q0 84 73 174v147h-4q-103 -172 -305 -172q-152 0 -238 88q-82 84 -82 222q0 297 353 344l278 37q0 168 -182 168q-184 0 -348 -109v238q62 32 171 57q120 29 218 29q438 0 438 -437v-612h-144q-60 -91 -60 -160
q0 -53 58 -53q48 0 119 26v-136zM688 416v69l-186 -24q-154 -20 -154 -139q0 -53 37 -88t102 -35q89 0 145 61.5t56 155.5z" />
    <glyph glyph-name="Cacute" unicode="&#x106;" horiz-adv-x="1278" 
d="M1192 51q-157 -76 -410 -76q-340 0 -530 206q-178 192 -178 505q0 346 213 559t551 213q209 0 354 -53v-311q-145 86 -328 86q-195 0 -318 -119q-132 -128 -132 -352q0 -208 117 -331.5t315 -123.5q189 0 346 92v-295zM1159 1890l-313 -323h-228l260 323h281z" />
    <glyph glyph-name="cacute" unicode="&#x107;" horiz-adv-x="983" 
d="M909 37q-106 -62 -309 -62q-238 0 -385 147q-143 142 -143 365q0 266 162 417q156 145 413 145q182 0 262 -48v-268q-99 74 -221 74q-134 0 -213 -78q-82 -80 -82 -221q0 -135 76.5 -213t208.5 -78q118 0 231 74v-254zM926 1509l-313 -323h-228l260 323h281z" />
    <glyph glyph-name="Ccircumflex" unicode="&#x108;" horiz-adv-x="1278" 
d="M1192 51q-157 -76 -410 -76q-340 0 -530 206q-178 192 -178 505q0 346 213 559t551 213q209 0 354 -53v-311q-145 86 -328 86q-195 0 -318 -119q-132 -128 -132 -352q0 -208 117 -331.5t315 -123.5q189 0 346 92v-295zM647 1567h-207l235 325h248l236 -325h-207l-158 188
z" />
    <glyph glyph-name="ccircumflex" unicode="&#x109;" horiz-adv-x="983" 
d="M909 37q-106 -62 -309 -62q-238 0 -385 147q-143 142 -143 365q0 266 162 417q156 145 413 145q182 0 262 -48v-268q-99 74 -221 74q-134 0 -213 -78q-82 -80 -82 -221q0 -135 76.5 -213t208.5 -78q118 0 231 74v-254zM441 1186h-207l235 325h248l236 -325h-207l-158 188
z" />
    <glyph glyph-name="Cdotaccent" unicode="&#x10a;" horiz-adv-x="1278" 
d="M1192 51q-157 -76 -410 -76q-340 0 -530 206q-178 192 -178 505q0 346 213 559t551 213q209 0 354 -53v-311q-145 86 -328 86q-195 0 -318 -119q-132 -128 -132 -352q0 -208 117 -331.5t315 -123.5q189 0 346 92v-295zM971 1704q0 -58 -42 -97.5t-110 -39.5
q-67 0 -110.5 40t-43.5 97q0 59 44 97t110 38q67 0 109.5 -38t42.5 -97z" />
    <glyph glyph-name="cdotaccent" unicode="&#x10b;" horiz-adv-x="983" 
d="M909 37q-106 -62 -309 -62q-238 0 -385 147q-143 142 -143 365q0 266 162 417q156 145 413 145q182 0 262 -48v-268q-99 74 -221 74q-134 0 -213 -78q-82 -80 -82 -221q0 -135 76.5 -213t208.5 -78q118 0 231 74v-254zM762 1323q0 -58 -42 -97.5t-110 -39.5
q-67 0 -110.5 40t-43.5 97q0 59 44 97t110 38q67 0 109.5 -38t42.5 -97z" />
    <glyph glyph-name="Ccaron" unicode="&#x10c;" horiz-adv-x="1278" 
d="M1192 51q-157 -76 -410 -76q-340 0 -530 206q-178 192 -178 505q0 346 213 559t551 213q209 0 354 -53v-311q-145 86 -328 86q-195 0 -318 -119q-132 -128 -132 -352q0 -208 117 -331.5t315 -123.5q189 0 346 92v-295zM1163 1892l-238 -325h-248l-235 325h205l155 -188
l156 188h205z" />
    <glyph glyph-name="ccaron" unicode="&#x10d;" horiz-adv-x="983" 
d="M909 37q-106 -62 -309 -62q-238 0 -385 147q-143 142 -143 365q0 266 162 417q156 145 413 145q182 0 262 -48v-268q-99 74 -221 74q-134 0 -213 -78q-82 -80 -82 -221q0 -135 76.5 -213t208.5 -78q118 0 231 74v-254zM950 1511l-238 -325h-248l-235 325h205l155 -188
l156 188h205z" />
    <glyph glyph-name="Dcaron" unicode="&#x10e;" horiz-adv-x="1509" 
d="M1436 735q0 -334 -208.5 -534.5t-555.5 -200.5h-508v1434h508q764 0 764 -699zM1096 731q0 201 -114 318q-119 122 -337 122h-158v-909h160q212 0 332 129q117 125 117 340zM1077 1892l-238 -325h-248l-235 325h205l155 -188l156 188h205z" />
    <glyph glyph-name="dcaron" unicode="&#x10f;" horiz-adv-x="1432" 
d="M1604 1516l-168 -353h-195l90 353h273zM1135 0h-316v141h-4q-108 -166 -317 -166q-180 0 -295 120q-131 137 -131 394q0 256 131 410q129 150 336 150q198 0 276 -142h4v609h316v-1516zM825 498v77q0 101 -58 166.5t-151 65.5q-106 0 -164.5 -84t-58.5 -225
q0 -142 63 -215q56 -66 152 -66q94 0 155 74q62 78 62 207z" />
    <glyph glyph-name="Dcroat" unicode="&#x110;" horiz-adv-x="1509" 
d="M1436 735q0 -334 -208.5 -534.5t-555.5 -200.5h-508v586h-164v266h164v582h508q764 0 764 -699zM1096 731q0 201 -114 318q-119 122 -337 122h-158v-319h271v-266h-271v-324h160q212 0 332 129q117 125 117 340z" />
    <glyph glyph-name="dcroat" unicode="&#x111;" horiz-adv-x="1294" 
d="M1135 0h-316v141h-4q-108 -166 -317 -166q-180 0 -295 120q-131 137 -131 394q0 256 131 410q129 150 336 150q198 0 276 -142h4v264h-330v205h330v140h316v-140h143v-205h-143v-1171zM825 498v77q0 101 -58 166.5t-151 65.5q-106 0 -164.5 -84t-58.5 -225
q0 -142 63 -215q56 -66 152 -66q94 0 155 74q62 78 62 207z" />
    <glyph glyph-name="Emacron" unicode="&#x112;" horiz-adv-x="1090" 
d="M1024 0h-860v1434h827v-263h-504v-319h469v-262h-469v-328h537v-262zM864 1567h-586v172h586v-172z" />
    <glyph glyph-name="emacron" unicode="&#x113;" horiz-adv-x="1108" 
d="M1053 422h-668q16 -223 281 -223q168 0 297 80v-228q-142 -76 -369 -76q-251 0 -388 140q-134 137 -134 381q0 270 166 422q143 131 346 131q233 0 357 -145q112 -131 112 -349v-133zM760 616q0 220 -178 220q-79 0 -136 -68q-52 -62 -63 -152h377zM867 1186h-586v172
h586v-172z" />
    <glyph glyph-name="Ebreve" unicode="&#x114;" horiz-adv-x="1090" 
d="M1024 0h-860v1434h827v-263h-504v-319h469v-262h-469v-328h537v-262zM926 1874q-11 -138 -98 -220q-91 -87 -242 -87q-147 0 -238.5 86.5t-95.5 220.5h179q17 -135 159 -135q137 0 156 135h180z" />
    <glyph glyph-name="ebreve" unicode="&#x115;" horiz-adv-x="1108" 
d="M1053 422h-668q16 -223 281 -223q168 0 297 80v-228q-142 -76 -369 -76q-251 0 -388 140q-134 137 -134 381q0 270 166 422q143 131 346 131q233 0 357 -145q112 -131 112 -349v-133zM760 616q0 220 -178 220q-79 0 -136 -68q-52 -62 -63 -152h377zM911 1493
q-11 -138 -98 -220q-91 -87 -242 -87q-147 0 -238.5 86.5t-95.5 220.5h179q17 -135 159 -135q137 0 156 135h180z" />
    <glyph glyph-name="Edotaccent" unicode="&#x116;" horiz-adv-x="1090" 
d="M1024 0h-860v1434h827v-263h-504v-319h469v-262h-469v-328h537v-262zM741 1704q0 -58 -42 -97.5t-110 -39.5q-67 0 -110.5 40t-43.5 97q0 59 44 97t110 38q67 0 109.5 -38t42.5 -97z" />
    <glyph glyph-name="edotaccent" unicode="&#x117;" horiz-adv-x="1108" 
d="M1053 422h-668q16 -223 281 -223q168 0 297 80v-228q-142 -76 -369 -76q-251 0 -388 140q-134 137 -134 381q0 270 166 422q143 131 346 131q233 0 357 -145q112 -131 112 -349v-133zM760 616q0 220 -178 220q-79 0 -136 -68q-52 -62 -63 -152h377zM748 1323
q0 -58 -42 -97.5t-110 -39.5q-67 0 -110.5 40t-43.5 97q0 59 44 97t110 38q67 0 109.5 -38t42.5 -97z" />
    <glyph glyph-name="Eogonek" unicode="&#x118;" horiz-adv-x="1090" 
d="M998 -323q-77 -26 -154 -26q-87 0 -139 49t-52 126q0 84 73 174h-562v1434h827v-263h-504v-319h469v-262h-469v-328h537v-262h-143q-60 -91 -60 -160q0 -53 58 -53q48 0 119 26v-136z" />
    <glyph glyph-name="eogonek" unicode="&#x119;" horiz-adv-x="1108" 
d="M809 -323q-76 -26 -154 -26q-86 0 -138 49t-52 126q0 73 57 153q-217 20 -333.5 156t-116.5 361q0 270 166 422q143 131 346 131q233 0 357 -145q112 -131 112 -349v-133h-668q16 -223 281 -223q168 0 297 80v-228q-110 -58 -284 -72q-46 -80 -46 -139q0 -53 58 -53
q47 0 118 26v-136zM760 616q0 220 -178 220q-79 0 -136 -68q-52 -62 -63 -152h377z" />
    <glyph glyph-name="Ecaron" unicode="&#x11a;" horiz-adv-x="1090" 
d="M1024 0h-860v1434h827v-263h-504v-319h469v-262h-469v-328h537v-262zM954 1892l-238 -325h-248l-235 325h205l155 -188l156 188h205z" />
    <glyph glyph-name="ecaron" unicode="&#x11b;" horiz-adv-x="1108" 
d="M1053 422h-668q16 -223 281 -223q168 0 297 80v-228q-142 -76 -369 -76q-251 0 -388 140q-134 137 -134 381q0 270 166 422q143 131 346 131q233 0 357 -145q112 -131 112 -349v-133zM760 616q0 220 -178 220q-79 0 -136 -68q-52 -62 -63 -152h377zM935 1511l-238 -325
h-248l-235 325h205l155 -188l156 188h205z" />
    <glyph glyph-name="Gcircumflex" unicode="&#x11c;" horiz-adv-x="1456" 
d="M1341 96q-209 -121 -522 -121q-346 0 -545.5 192t-199.5 527q0 332 210 544q220 220 588 220q227 0 402 -63v-303q-167 96 -406 96q-196 0 -321 -124q-133 -132 -133 -355q0 -234 126 -356q112 -107 294 -107q116 0 184 33v280h-287v258h610v-721zM684 1567h-207l235 325
h248l236 -325h-207l-158 188z" />
    <glyph glyph-name="gcircumflex" unicode="&#x11d;" horiz-adv-x="1268" 
d="M1137 117q0 -269 -147 -424q-166 -174 -496 -174q-207 0 -328 59v266q158 -92 319 -92q167 0 255 91q81 83 81 223v81h-4q-108 -172 -319 -172q-196 0 -311 138t-115 370q0 264 132 418q127 148 333 148q188 0 280 -144h4v119h316v-907zM825 492v81q0 94 -53 161
q-59 73 -154 73q-105 0 -165 -82t-60 -231q0 -125 54 -199q57 -78 159 -78q98 0 158.5 75.5t60.5 199.5zM481 1186h-207l235 325h248l236 -325h-207l-158 188z" />
    <glyph glyph-name="Gbreve" unicode="&#x11e;" horiz-adv-x="1456" 
d="M1341 96q-209 -121 -522 -121q-346 0 -545.5 192t-199.5 527q0 332 210 544q220 220 588 220q227 0 402 -63v-303q-167 96 -406 96q-196 0 -321 -124q-133 -132 -133 -355q0 -234 126 -356q112 -107 294 -107q116 0 184 33v280h-287v258h610v-721zM1143 1874
q-11 -138 -98 -220q-91 -87 -242 -87q-147 0 -238.5 86.5t-95.5 220.5h179q17 -135 159 -135q137 0 156 135h180z" />
    <glyph glyph-name="gbreve" unicode="&#x11f;" horiz-adv-x="1268" 
d="M1137 117q0 -269 -147 -424q-166 -174 -496 -174q-207 0 -328 59v266q158 -92 319 -92q167 0 255 91q81 83 81 223v81h-4q-108 -172 -319 -172q-196 0 -311 138t-115 370q0 264 132 418q127 148 333 148q188 0 280 -144h4v119h316v-907zM825 492v81q0 94 -53 161
q-59 73 -154 73q-105 0 -165 -82t-60 -231q0 -125 54 -199q57 -78 159 -78q98 0 158.5 75.5t60.5 199.5zM971 1493q-11 -138 -98 -220q-91 -87 -242 -87q-147 0 -238.5 86.5t-95.5 220.5h179q17 -135 159 -135q137 0 156 135h180z" />
    <glyph glyph-name="Gdotaccent" unicode="&#x120;" horiz-adv-x="1456" 
d="M1341 96q-209 -121 -522 -121q-346 0 -545.5 192t-199.5 527q0 332 210 544q220 220 588 220q227 0 402 -63v-303q-167 96 -406 96q-196 0 -321 -124q-133 -132 -133 -355q0 -234 126 -356q112 -107 294 -107q116 0 184 33v280h-287v258h610v-721zM971 1704
q0 -58 -42 -97.5t-110 -39.5q-67 0 -110.5 40t-43.5 97q0 59 44 97t110 38q67 0 109.5 -38t42.5 -97z" />
    <glyph glyph-name="gdotaccent" unicode="&#x121;" horiz-adv-x="1268" 
d="M1137 117q0 -269 -147 -424q-166 -174 -496 -174q-207 0 -328 59v266q158 -92 319 -92q167 0 255 91q81 83 81 223v81h-4q-108 -172 -319 -172q-196 0 -311 138t-115 370q0 264 132 418q127 148 333 148q188 0 280 -144h4v119h316v-907zM825 492v81q0 94 -53 161
q-59 73 -154 73q-105 0 -165 -82t-60 -231q0 -125 54 -199q57 -78 159 -78q98 0 158.5 75.5t60.5 199.5zM786 1323q0 -58 -42 -97.5t-110 -39.5q-67 0 -110.5 40t-43.5 97q0 59 44 97t110 38q67 0 109.5 -38t42.5 -97z" />
    <glyph glyph-name="Gcommaaccent" unicode="&#x122;" horiz-adv-x="1456" 
d="M1341 96q-190 -109 -475 -121v-57q187 -8 187 -166q0 -207 -318 -207q-45 0 -88 4v138q38 -6 72 -6q123 0 123 73q0 66 -111 66q-12 0 -37 -2v164q-291 34 -455.5 221.5t-164.5 490.5q0 332 210 544q220 220 588 220q227 0 402 -63v-303q-167 96 -406 96
q-196 0 -321 -124q-133 -132 -133 -355q0 -234 126 -356q112 -107 294 -107q116 0 184 33v280h-287v258h610v-721z" />
    <glyph glyph-name="gcommaaccent" unicode="&#x123;" horiz-adv-x="1268" 
d="M1137 117q0 -269 -147 -424q-166 -174 -496 -174q-207 0 -328 59v266q158 -92 319 -92q167 0 255 91q81 83 81 223v81h-4q-108 -172 -319 -172q-196 0 -311 138t-115 370q0 264 132 418q127 148 333 148q188 0 280 -144h4v119h316v-907zM825 492v81q0 94 -53 161
q-59 73 -154 73q-105 0 -165 -82t-60 -231q0 -125 54 -199q57 -78 159 -78q98 0 158.5 75.5t60.5 199.5zM459 1186l168 352h194l-90 -352h-272z" />
    <glyph glyph-name="Hcircumflex" unicode="&#x124;" horiz-adv-x="1569" 
d="M1405 0h-324v584h-594v-584h-323v1434h323v-572h594v572h324v-1434zM632 1567h-207l235 325h248l236 -325h-207l-158 188z" />
    <glyph glyph-name="hcircumflex" unicode="&#x125;" horiz-adv-x="1233" 
d="M1116 0h-315v582q0 225 -164 225q-87 0 -139 -67q-49 -62 -49 -156v-584h-316v1516h316v-644h4q115 177 315 177q348 0 348 -420v-629zM500 1567h-207l235 325h248l236 -325h-207l-158 188z" />
    <glyph glyph-name="Hbar" unicode="&#x126;" horiz-adv-x="1569" 
d="M487 1018v-156h594v156h-594zM1405 0h-324v584h-594v-584h-323v1018h-164v205h164v211h323v-211h594v211h324v-211h164v-205h-164v-1018z" />
    <glyph glyph-name="hbar" unicode="&#x127;" horiz-adv-x="1262" 
d="M1149 0h-311v553q0 225 -164 225q-88 0 -138.5 -61t-50.5 -158v-559h-315v1171h-143v205h143v140h315v-140h330v-205h-330v-321h4q116 176 316 176q344 0 344 -420v-606z" />
    <glyph glyph-name="Itilde" unicode="&#x128;" horiz-adv-x="649" 
d="M487 0h-323v1434h323v-1434zM684 1860q0 -140 -55.5 -216.5t-151.5 -76.5q-86 0 -168 43q-90 47 -123 47q-80 0 -80 -108h-141q0 137 54 215t155 78q80 0 168 -49q76 -44 120 -44q78 0 78 111h144z" />
    <glyph glyph-name="itilde" unicode="&#x129;" horiz-adv-x="582" 
d="M449 0h-316v1024h316v-1024zM650 1497q0 -140 -55.5 -216.5t-151.5 -76.5q-86 0 -168 43q-90 47 -123 47q-80 0 -80 -108h-141q0 137 54 215t155 78q80 0 168 -49q76 -44 120 -44q78 0 78 111h144z" />
    <glyph glyph-name="Imacron" unicode="&#x12a;" horiz-adv-x="649" 
d="M487 0h-323v1434h323v-1434zM617 1567h-586v172h586v-172z" />
    <glyph glyph-name="imacron" unicode="&#x12b;" horiz-adv-x="582" 
d="M449 0h-316v1024h316v-1024zM584 1186h-586v172h586v-172z" />
    <glyph glyph-name="Ibreve" unicode="&#x12c;" horiz-adv-x="649" 
d="M487 0h-323v1434h323v-1434zM662 1874q-11 -138 -98 -220q-91 -87 -242 -87q-147 0 -238.5 86.5t-95.5 220.5h179q17 -135 159 -135q137 0 156 135h180z" />
    <glyph glyph-name="ibreve" unicode="&#x12d;" horiz-adv-x="582" 
d="M449 0h-316v1024h316v-1024zM628 1493q-11 -138 -98 -220q-91 -87 -242 -87q-147 0 -238.5 86.5t-95.5 220.5h179q17 -135 159 -135q137 0 156 135h180z" />
    <glyph glyph-name="Iogonek" unicode="&#x12e;" horiz-adv-x="649" 
d="M506 -323q-77 -26 -154 -26q-86 0 -138 49t-52 126q0 84 73 174h-71v1434h323v-1434h-98q-59 -91 -59 -160q0 -53 58 -53q47 0 118 26v-136z" />
    <glyph glyph-name="iogonek" unicode="&#x12f;" horiz-adv-x="582" 
d="M475 1350q0 -71 -50 -117.5t-132 -46.5q-81 0 -131.5 47.5t-50.5 116.5q0 72 51.5 116.5t130.5 44.5q80 0 131 -45.5t51 -115.5zM475 -323q-77 -26 -154 -26q-86 0 -138 49t-52 126q0 84 72 174h-70v1024h316v-1024h-91q-59 -91 -59 -160q0 -53 57 -53q48 0 119 26v-136z
" />
    <glyph glyph-name="Idotaccent" unicode="&#x130;" horiz-adv-x="649" 
d="M487 0h-323v1434h323v-1434zM477 1704q0 -58 -42 -97.5t-110 -39.5q-67 0 -110.5 40t-43.5 97q0 59 44 97t110 38q67 0 109.5 -38t42.5 -97z" />
    <glyph glyph-name="IJ" unicode="&#x132;" horiz-adv-x="1561" 
d="M487 0h-323v1434h323v-1434zM1411 569q0 -285 -131 -438q-134 -156 -389 -156q-114 0 -209 39v303q83 -63 186 -63q222 0 222 328v852h321v-865z" />
    <glyph glyph-name="ij" unicode="&#x133;" horiz-adv-x="1163" 
d="M475 1350q0 -71 -50 -117.5t-132 -46.5q-81 0 -131.5 47.5t-50.5 116.5q0 72 51.5 116.5t130.5 44.5q80 0 131 -45.5t51 -115.5zM449 0h-316v1024h316v-1024zM1057 1350q0 -71 -50 -117.5t-133 -46.5q-80 0 -131 47.5t-51 116.5q0 72 51.5 116.5t130.5 44.5
q81 0 132 -45.5t51 -115.5zM1030 18q0 -199 -86 -330q-111 -169 -344 -169q-68 0 -151 30v248q65 -37 116 -37q150 0 150 234v1030h315v-1006z" />
    <glyph glyph-name="Jcircumflex" unicode="&#x134;" horiz-adv-x="911" 
d="M762 569q0 -285 -131 -438q-134 -156 -389 -156q-114 0 -209 39v303q83 -63 186 -63q221 0 221 328v852h322v-865zM447 1567h-207l235 325h248l236 -325h-207l-158 188z" />
    <glyph glyph-name="jcircumflex" unicode="&#x135;" horiz-adv-x="582" 
d="M449 18q0 -199 -87 -330q-111 -169 -344 -169q-68 0 -151 30v248q65 -37 117 -37q149 0 149 234v1030h316v-1006zM137 1186h-207l236 325h248l235 -325h-207l-157 188z" />
    <glyph glyph-name="Kcommaaccent" unicode="&#x136;" horiz-adv-x="1329" 
d="M1356 0h-408l-418 623q-13 20 -38 79h-5v-702h-323v1434h323v-678h5q12 27 40 80l396 598h385l-500 -684zM886 -111l-168 -352h-194l90 352h272z" />
    <glyph glyph-name="kcommaaccent" unicode="&#x137;" horiz-adv-x="1145" 
d="M1159 0h-379l-327 508h-4v-508h-316v1516h316v-965h4l305 473h375l-367 -481zM765 -111l-168 -352h-194l90 352h272z" />
    <glyph glyph-name="kgreenlandic" unicode="&#x138;" horiz-adv-x="1145" 
d="M1159 0h-379l-327 508h-4v-508h-316v1024h316v-473h4l305 473h375l-367 -481z" />
    <glyph glyph-name="Lacute" unicode="&#x139;" horiz-adv-x="1047" 
d="M1018 0h-854v1434h323v-1172h531v-262zM903 1890l-313 -323h-228l260 323h281z" />
    <glyph glyph-name="lacute" unicode="&#x13a;" horiz-adv-x="582" 
d="M449 0h-316v1516h316v-1516zM652 1972l-313 -323h-228l260 323h281z" />
    <glyph glyph-name="Lcommaaccent" unicode="&#x13b;" horiz-adv-x="1047" 
d="M825 -248q0 -207 -317 -207q-45 0 -88 4v138q38 -6 72 -6q122 0 122 73q0 66 -110 66q-13 0 -37 -2v182h-303v1434h323v-1172h531v-262h-379v-82q186 -8 186 -166z" />
    <glyph glyph-name="lcommaaccent" unicode="&#x13c;" horiz-adv-x="582" 
d="M532 -248q0 -207 -317 -207q-45 0 -88 4v138q38 -6 72 -6q123 0 123 73q0 66 -111 66q-13 0 -37 -2v182h-41v1516h316v-1516h-103v-82q186 -8 186 -166z" />
    <glyph glyph-name="Lcaron" unicode="&#x13d;" horiz-adv-x="1047" 
d="M1018 0h-854v1434h323v-1172h531v-262zM1032 1434l-168 -353h-194l90 353h272z" />
    <glyph glyph-name="lcaron" unicode="&#x13e;" horiz-adv-x="745" 
d="M449 0h-316v1516h316v-1516zM918 1516l-168 -353h-195l90 353h273z" />
    <glyph glyph-name="Ldot" unicode="&#x13f;" horiz-adv-x="1047" 
d="M1018 0h-854v1434h323v-1172h531v-262zM979 788q0 -58 -41.5 -97.5t-110.5 -39.5q-66 0 -109.5 40t-43.5 97q0 60 44 98t109 38q67 0 109.5 -38.5t42.5 -97.5z" />
    <glyph glyph-name="ldot" unicode="&#x140;" horiz-adv-x="887" 
d="M449 0h-316v1516h316v-1516zM887 727q0 -58 -42 -97.5t-110 -39.5q-67 0 -110 40t-43 97q0 59 44 97t109 38q67 0 109.5 -38t42.5 -97z" />
    <glyph glyph-name="Nacute" unicode="&#x143;" horiz-adv-x="1618" 
d="M1454 0h-326l-591 901q-50 76 -72 119h-4q8 -79 8 -232v-788h-305v1434h348l569 -873q29 -43 72 -117h4q-8 52 -8 197v793h305v-1434zM1143 1890l-313 -323h-228l260 323h281z" />
    <glyph glyph-name="nacute" unicode="&#x144;" horiz-adv-x="1239" 
d="M1122 0h-315v569q0 238 -170 238q-83 0 -135.5 -64t-52.5 -159v-584h-316v1024h316v-162h4q112 187 329 187q340 0 340 -422v-627zM972 1509l-313 -323h-228l260 323h281z" />
    <glyph glyph-name="Ncommaaccent" unicode="&#x145;" horiz-adv-x="1618" 
d="M1454 0h-326l-591 901q-50 76 -72 119h-4q8 -79 8 -232v-788h-305v1434h348l569 -873q29 -43 72 -117h4q-8 52 -8 197v793h305v-1434zM990 -111l-168 -352h-194l90 352h272z" />
    <glyph glyph-name="ncommaaccent" unicode="&#x146;" horiz-adv-x="1239" 
d="M1122 0h-315v569q0 238 -170 238q-83 0 -135.5 -64t-52.5 -159v-584h-316v1024h316v-162h4q112 187 329 187q340 0 340 -422v-627zM800 -111l-168 -352h-194l90 352h272z" />
    <glyph glyph-name="Ncaron" unicode="&#x147;" horiz-adv-x="1618" 
d="M1454 0h-326l-591 901q-50 76 -72 119h-4q8 -79 8 -232v-788h-305v1434h348l569 -873q29 -43 72 -117h4q-8 52 -8 197v793h305v-1434zM1170 1892l-238 -325h-248l-235 325h205l155 -188l156 188h205z" />
    <glyph glyph-name="ncaron" unicode="&#x148;" horiz-adv-x="1239" 
d="M1122 0h-315v569q0 238 -170 238q-83 0 -135.5 -64t-52.5 -159v-584h-316v1024h316v-162h4q112 187 329 187q340 0 340 -422v-627zM1001 1511l-238 -325h-248l-235 325h205l155 -188l156 188h205z" />
    <glyph glyph-name="napostrophe" unicode="&#x149;" horiz-adv-x="1403" 
d="M1286 0h-315v569q0 238 -170 238q-84 0 -136.5 -64t-52.5 -159v-584h-315v1024h315v-162h4q113 187 330 187q340 0 340 -422v-627zM326 1468l-193 -444h-194l114 444h273z" />
    <glyph glyph-name="Eng" unicode="&#x14a;" horiz-adv-x="1618" 
d="M1057 -420q-120 0 -203 31v248q65 -37 139 -37q151 0 156 181l-612 898q-45 65 -72 119h-4q8 -79 8 -232v-788h-305v1434h348l569 -840q57 -84 72 -117h4q-8 52 -8 197v760h305v-1354q0 -500 -397 -500z" />
    <glyph glyph-name="eng" unicode="&#x14b;" horiz-adv-x="1239" 
d="M1122 63q0 -485 -409 -485q-89 0 -172 31v248q65 -37 116 -37q150 0 150 233v516q0 238 -170 238q-83 0 -135.5 -64t-52.5 -159v-584h-316v1024h316v-162h4q112 187 329 187q340 0 340 -422v-564z" />
    <glyph glyph-name="Omacron" unicode="&#x14c;" horiz-adv-x="1552" 
d="M1479 727q0 -340 -197.5 -546t-511.5 -206q-305 0 -499 198q-197 201 -197 525q0 337 193 546q197 214 526 214q305 0 495.5 -200t190.5 -531zM1139 709q0 226 -98 350q-94 121 -257 121q-174 0 -274 -133q-96 -127 -96 -332q0 -220 106 -345q99 -116 256 -116
q161 0 259 113q104 121 104 342zM1069 1567h-586v172h586v-172z" />
    <glyph glyph-name="omacron" unicode="&#x14d;" horiz-adv-x="1251" 
d="M1180 526q0 -252 -147 -400q-150 -151 -412 -151q-257 0 -403 143.5t-146 389.5q0 259 158 403q150 138 405 138q264 0 411 -154q134 -142 134 -369zM858 520q0 287 -229 287q-109 0 -171 -74q-65 -77 -65 -221q0 -295 238 -295q227 0 227 303zM919 1186h-586v172h586
v-172z" />
    <glyph glyph-name="Obreve" unicode="&#x14e;" horiz-adv-x="1552" 
d="M1479 727q0 -340 -197.5 -546t-511.5 -206q-305 0 -499 198q-197 201 -197 525q0 337 193 546q197 214 526 214q305 0 495.5 -200t190.5 -531zM1139 709q0 226 -98 350q-94 121 -257 121q-174 0 -274 -133q-96 -127 -96 -332q0 -220 106 -345q99 -116 256 -116
q161 0 259 113q104 121 104 342zM1113 1874q-11 -138 -98 -220q-91 -87 -242 -87q-147 0 -238.5 86.5t-95.5 220.5h179q17 -135 159 -135q137 0 156 135h180z" />
    <glyph glyph-name="obreve" unicode="&#x14f;" horiz-adv-x="1251" 
d="M1180 526q0 -252 -147 -400q-150 -151 -412 -151q-257 0 -403 143.5t-146 389.5q0 259 158 403q150 138 405 138q264 0 411 -154q134 -142 134 -369zM858 520q0 287 -229 287q-109 0 -171 -74q-65 -77 -65 -221q0 -295 238 -295q227 0 227 303zM963 1493
q-11 -138 -98 -220q-91 -87 -242 -87q-147 0 -238.5 86.5t-95.5 220.5h179q17 -135 159 -135q137 0 156 135h180z" />
    <glyph glyph-name="Ohungarumlaut" unicode="&#x150;" horiz-adv-x="1552" 
d="M1479 727q0 -340 -197.5 -546t-511.5 -206q-305 0 -499 198q-197 201 -197 525q0 337 193 546q197 214 526 214q305 0 495.5 -200t190.5 -531zM1139 709q0 226 -98 350q-94 121 -257 121q-174 0 -274 -133q-96 -127 -96 -332q0 -220 106 -345q99 -116 256 -116
q161 0 259 113q104 121 104 342zM1277 1886l-252 -319h-210l213 319h249zM899 1886l-248 -319h-211l211 319h248z" />
    <glyph glyph-name="ohungarumlaut" unicode="&#x151;" horiz-adv-x="1251" 
d="M1180 526q0 -252 -147 -400q-150 -151 -412 -151q-257 0 -403 143.5t-146 389.5q0 259 158 403q150 138 405 138q264 0 411 -154q134 -142 134 -369zM858 520q0 287 -229 287q-109 0 -171 -74q-65 -77 -65 -221q0 -295 238 -295q227 0 227 303zM1106 1505l-252 -319h-210
l213 319h249zM728 1505l-248 -319h-211l211 319h248z" />
    <glyph glyph-name="Racute" unicode="&#x154;" horiz-adv-x="1303" 
d="M1266 0h-371l-145 369q-72 180 -193 180h-70v-549h-323v1434h512q522 0 522 -390q0 -152 -89 -257q-85 -99 -235 -138v-4q126 -40 205 -221zM858 1004q0 188 -225 188h-146v-399h140q107 0 171 63q60 60 60 148zM979 1890l-313 -323h-228l260 323h281z" />
    <glyph glyph-name="racute" unicode="&#x155;" horiz-adv-x="815" 
d="M801 739q-57 31 -133 31q-104 0 -161.5 -75.5t-57.5 -205.5v-489h-316v1024h316v-190h4q75 208 270 208q49 0 78 -12v-291zM772 1509l-313 -323h-228l260 323h281z" />
    <glyph glyph-name="Rcommaaccent" unicode="&#x156;" horiz-adv-x="1303" 
d="M1266 0h-371l-145 369q-72 180 -193 180h-70v-549h-323v1434h512q522 0 522 -390q0 -152 -89 -257q-85 -99 -235 -138v-4q126 -40 205 -221zM858 1004q0 188 -225 188h-146v-399h140q107 0 171 63q60 60 60 148zM849 -111l-168 -352h-194l90 352h272z" />
    <glyph glyph-name="rcommaaccent" unicode="&#x157;" horiz-adv-x="815" 
d="M801 739q-57 31 -133 31q-104 0 -161.5 -75.5t-57.5 -205.5v-489h-316v1024h316v-190h4q75 208 270 208q49 0 78 -12v-291zM593 -111l-168 -352h-194l90 352h272z" />
    <glyph glyph-name="Rcaron" unicode="&#x158;" horiz-adv-x="1303" 
d="M1266 0h-371l-145 369q-72 180 -193 180h-70v-549h-323v1434h512q522 0 522 -390q0 -152 -89 -257q-85 -99 -235 -138v-4q126 -40 205 -221zM858 1004q0 188 -225 188h-146v-399h140q107 0 171 63q60 60 60 148zM997 1892l-238 -325h-248l-235 325h205l155 -188l156 188
h205z" />
    <glyph glyph-name="rcaron" unicode="&#x159;" horiz-adv-x="815" 
d="M801 739q-57 31 -133 31q-104 0 -161.5 -75.5t-57.5 -205.5v-489h-316v1024h316v-190h4q75 208 270 208q49 0 78 -12v-291zM789 1511l-238 -325h-248l-235 325h205l155 -188l156 188h205z" />
    <glyph glyph-name="Sacute" unicode="&#x15a;" horiz-adv-x="1098" 
d="M1034 403q0 -178 -117 -290q-144 -138 -440 -138q-223 0 -371 80v320q171 -146 379 -146q108 0 163 47q46 40 46 99q0 69 -68 126q-54 44 -198 111q-328 155 -328 420q0 193 142.5 309.5t380.5 116.5q209 0 348 -55v-299q-145 100 -330 100q-92 0 -146.5 -40t-54.5 -105
q0 -69 48 -115q45 -43 174 -104q191 -92 273 -179q99 -106 99 -258zM887 1890l-313 -323h-228l260 323h281z" />
    <glyph glyph-name="sacute" unicode="&#x15b;" horiz-adv-x="901" 
d="M840 313q0 -148 -109 -238q-120 -100 -340 -100q-162 0 -297 52v256q154 -93 293 -93q150 0 150 93q0 41 -36 67t-157 72q-125 47 -182 108q-68 73 -68 193q0 147 116 236.5t314 89.5q127 0 254 -41v-244q-119 70 -250 70q-125 0 -125 -86q0 -46 35 -74q31 -24 125 -58
q138 -49 202 -112q75 -74 75 -191zM793 1509l-313 -323h-228l260 323h281z" />
    <glyph glyph-name="Scircumflex" unicode="&#x15c;" horiz-adv-x="1098" 
d="M1034 403q0 -178 -117 -290q-144 -138 -440 -138q-223 0 -371 80v320q171 -146 379 -146q108 0 163 47q46 40 46 99q0 69 -68 126q-54 44 -198 111q-328 155 -328 420q0 193 142.5 309.5t380.5 116.5q209 0 348 -55v-299q-145 100 -330 100q-92 0 -146.5 -40t-54.5 -105
q0 -69 48 -115q45 -43 174 -104q191 -92 273 -179q99 -106 99 -258zM418 1567h-207l235 325h248l236 -325h-207l-158 188z" />
    <glyph glyph-name="scircumflex" unicode="&#x15d;" horiz-adv-x="901" 
d="M840 313q0 -148 -109 -238q-120 -100 -340 -100q-162 0 -297 52v256q154 -93 293 -93q150 0 150 93q0 41 -36 67t-157 72q-125 47 -182 108q-68 73 -68 193q0 147 116 236.5t314 89.5q127 0 254 -41v-244q-119 70 -250 70q-125 0 -125 -86q0 -46 35 -74q31 -24 125 -58
q138 -49 202 -112q75 -74 75 -191zM313 1186h-207l235 325h248l236 -325h-207l-158 188z" />
    <glyph glyph-name="Scedilla" unicode="&#x15e;" horiz-adv-x="1098" 
d="M801 -248q0 -207 -318 -207q-45 0 -88 4v138q38 -6 72 -6q123 0 123 73q0 66 -111 66q-12 0 -37 -2v158q-205 9 -336 79v320q171 -146 379 -146q108 0 163 47q46 40 46 99q0 69 -68 126q-54 44 -198 111q-328 155 -328 420q0 193 142.5 309.5t380.5 116.5q209 0 348 -55
v-299q-145 100 -330 100q-92 0 -146.5 -40t-54.5 -105q0 -69 48 -115q45 -43 174 -104q191 -92 273 -179q99 -106 99 -258q0 -154 -89 -261q-109 -128 -331 -158v-66q187 -8 187 -166z" />
    <glyph glyph-name="scedilla" unicode="&#x15f;" horiz-adv-x="901" 
d="M705 -248q0 -207 -318 -207q-45 0 -88 4v138q38 -6 72 -6q123 0 123 73q0 66 -111 66q-13 0 -37 -2v159q-147 10 -252 50v256q154 -93 293 -93q150 0 150 93q0 41 -36 67t-157 72q-125 47 -182 108q-68 73 -68 193q0 147 116 236.5t314 89.5q127 0 254 -41v-244
q-119 70 -250 70q-125 0 -125 -86q0 -46 35 -74q31 -24 125 -58q138 -49 202 -112q75 -74 75 -191q0 -124 -79 -209q-84 -92 -243 -119v-67q187 -8 187 -166z" />
    <glyph glyph-name="Tcommaaccent" unicode="&#x162;" horiz-adv-x="1200" 
d="M831 -248q0 -207 -317 -207q-45 0 -88 4v138q38 -6 72 -6q123 0 123 73q0 66 -111 66q-13 0 -37 -2v182h-35v1171h-407v263h1140v-263h-409v-1171h-117v-82q186 -8 186 -166z" />
    <glyph glyph-name="tcommaaccent" unicode="&#x163;" horiz-adv-x="797" 
d="M717 -248q0 -207 -318 -207q-45 0 -88 4v138q38 -6 72 -6q123 0 123 73q0 66 -111 66q-12 0 -37 -2v197q-151 80 -151 307v469h-166v233h166v221l315 90v-311h230v-233h-230v-414q0 -160 127 -160q50 0 103 29v-234q-73 -38 -211 -37l-11 1v-58q187 -8 187 -166z" />
    <glyph glyph-name="Tcaron" unicode="&#x164;" horiz-adv-x="1200" 
d="M1171 1171h-409v-1171h-324v1171h-407v263h1140v-263zM961 1892l-238 -325h-248l-235 325h205l155 -188l156 188h205z" />
    <glyph glyph-name="tcaron" unicode="&#x165;" horiz-adv-x="971" 
d="M752 12q-71 -37 -211 -37q-334 0 -334 347v469h-166v233h166v221l315 90v-311h230v-233h-230v-414q0 -160 127 -160q50 0 103 29v-234zM1114 1487l-168 -352h-194l90 352h272z" />
    <glyph glyph-name="Tbar" unicode="&#x166;" horiz-adv-x="1200" 
d="M999 539h-237v-539h-324v539h-237v266h237v366h-407v263h1140v-263h-409v-366h237v-266z" />
    <glyph glyph-name="tbar" unicode="&#x167;" horiz-adv-x="797" 
d="M741 442h-219v-65q0 -160 127 -160q50 0 103 29v-234q-71 -37 -211 -37q-334 0 -334 347v120h-146v205h146v144h-166v233h166v221l315 90v-311h230v-233h-230v-144h219v-205z" />
    <glyph glyph-name="Utilde" unicode="&#x168;" horiz-adv-x="1481" 
d="M1333 621q0 -646 -602 -646q-584 0 -584 631v828h324v-832q0 -348 272 -348q267 0 267 336v844h323v-813zM1100 1829q0 -140 -55.5 -216.5t-151.5 -76.5q-86 0 -168 43q-90 47 -123 47q-80 0 -80 -108h-141q0 137 54 215t155 78q80 0 168 -49q76 -44 120 -44q78 0 78 111
h144z" />
    <glyph glyph-name="utilde" unicode="&#x169;" horiz-adv-x="1239" 
d="M1106 0h-315v156h-5q-116 -181 -313 -181q-356 0 -356 431v618h315v-590q0 -217 172 -217q83 0 135 59t52 162v586h315v-1024zM979 1497q0 -140 -55.5 -216.5t-151.5 -76.5q-86 0 -168 43q-90 47 -123 47q-80 0 -80 -108h-141q0 137 54 215t155 78q80 0 168 -49
q76 -44 120 -44q78 0 78 111h144z" />
    <glyph glyph-name="Umacron" unicode="&#x16a;" horiz-adv-x="1481" 
d="M1333 621q0 -646 -602 -646q-584 0 -584 631v828h324v-832q0 -348 272 -348q267 0 267 336v844h323v-813zM1033 1567h-586v172h586v-172z" />
    <glyph glyph-name="umacron" unicode="&#x16b;" horiz-adv-x="1239" 
d="M1106 0h-315v156h-5q-116 -181 -313 -181q-356 0 -356 431v618h315v-590q0 -217 172 -217q83 0 135 59t52 162v586h315v-1024zM912 1186h-586v172h586v-172z" />
    <glyph glyph-name="Ubreve" unicode="&#x16c;" horiz-adv-x="1481" 
d="M1333 621q0 -646 -602 -646q-584 0 -584 631v828h324v-832q0 -348 272 -348q267 0 267 336v844h323v-813zM1077 1874q-11 -138 -98 -220q-91 -87 -242 -87q-147 0 -238.5 86.5t-95.5 220.5h179q17 -135 159 -135q137 0 156 135h180z" />
    <glyph glyph-name="ubreve" unicode="&#x16d;" horiz-adv-x="1239" 
d="M1106 0h-315v156h-5q-116 -181 -313 -181q-356 0 -356 431v618h315v-590q0 -217 172 -217q83 0 135 59t52 162v586h315v-1024zM956 1493q-11 -138 -98 -220q-91 -87 -242 -87q-147 0 -238.5 86.5t-95.5 220.5h179q17 -135 159 -135q137 0 156 135h180z" />
    <glyph glyph-name="Uring" unicode="&#x16e;" horiz-adv-x="1481" 
d="M1333 621q0 -646 -602 -646q-584 0 -584 631v828h324v-832q0 -348 272 -348q267 0 267 336v844h323v-813zM980 1788q0 -102 -76 -164q-70 -57 -168 -57q-101 0 -168 59t-67 156q0 105 76 167q67 54 164 54q107 0 173 -60t66 -155zM839 1786q0 40 -28 67t-75 27
q-96 0 -96 -94t96 -94q47 0 75 28t28 66z" />
    <glyph glyph-name="uring" unicode="&#x16f;" horiz-adv-x="1239" 
d="M1106 0h-315v156h-5q-116 -181 -313 -181q-356 0 -356 431v618h315v-590q0 -217 172 -217q83 0 135 59t52 162v586h315v-1024zM859 1407q0 -102 -76 -164q-70 -57 -168 -57q-101 0 -168 59t-67 156q0 105 76 167q67 54 164 54q107 0 173 -60t66 -155zM718 1405
q0 40 -28 67t-75 27q-96 0 -96 -94t96 -94q47 0 75 28t28 66z" />
    <glyph glyph-name="Uhungarumlaut" unicode="&#x170;" horiz-adv-x="1481" 
d="M1333 621q0 -646 -602 -646q-584 0 -584 631v828h324v-832q0 -348 272 -348q267 0 267 336v844h323v-813zM1221 1886l-252 -319h-210l213 319h249zM843 1886l-248 -319h-211l211 319h248z" />
    <glyph glyph-name="uhungarumlaut" unicode="&#x171;" horiz-adv-x="1239" 
d="M1106 0h-315v156h-5q-116 -181 -313 -181q-356 0 -356 431v618h315v-590q0 -217 172 -217q83 0 135 59t52 162v586h315v-1024zM1090 1505l-252 -319h-210l213 319h249zM712 1505l-248 -319h-211l211 319h248z" />
    <glyph glyph-name="Uogonek" unicode="&#x172;" horiz-adv-x="1481" 
d="M938 -323q-76 -26 -154 -26q-86 0 -138 49t-52 126q0 73 57 153q-504 43 -504 627v828h324v-832q0 -348 272 -348q267 0 267 336v844h323v-813q0 -605 -525 -643q-46 -79 -46 -138q0 -53 58 -53q47 0 118 26v-136z" />
    <glyph glyph-name="uogonek" unicode="&#x173;" horiz-adv-x="1239" 
d="M1068 -323q-76 -26 -154 -26q-86 0 -138 49t-52 126q0 84 73 174h-6v156h-5q-116 -181 -313 -181q-356 0 -356 431v618h315v-590q0 -217 172 -217q83 0 135 59t52 162v586h315v-1024h-155q-59 -91 -59 -160q0 -53 58 -53q47 0 118 26v-136z" />
    <glyph glyph-name="Wcircumflex" unicode="&#x174;" horiz-adv-x="2058" 
d="M2040 1434l-379 -1434h-358l-238 920q-18 69 -23 161h-4q-9 -95 -26 -161l-244 -920h-373l-377 1434h353l202 -955q13 -58 19 -164h6q4 79 29 168l260 951h346l235 -963q13 -51 23 -154h4q4 83 21 160l198 957h326zM877 1567h-207l235 325h248l236 -325h-207l-158 188z
" />
    <glyph glyph-name="wcircumflex" unicode="&#x175;" horiz-adv-x="1632" 
d="M1616 1024l-295 -1024h-332l-151 600q-14 56 -17 131h-6q-7 -76 -20 -127l-162 -604h-328l-289 1024h322l141 -668q9 -42 15 -114h6q5 68 18 118l176 664h301l158 -668q7 -27 14 -116h7q4 56 16 116l133 668h293zM664 1186h-207l235 325h248l236 -325h-207l-158 188z" />
    <glyph glyph-name="Ycircumflex" unicode="&#x176;" horiz-adv-x="1243" 
d="M1245 1434l-467 -924v-510h-323v504l-455 930h369l231 -535q6 -13 33 -117h4q13 73 31 113l235 539h342zM469 1567h-207l235 325h248l236 -325h-207l-158 188z" />
    <glyph glyph-name="ycircumflex" unicode="&#x177;" 
d="M1108 1024l-416 -1106q-150 -399 -452 -399q-110 0 -189 26v252q63 -37 137 -37q122 0 170 115l54 127l-416 1022h350l191 -623q19 -63 28 -137h4q10 60 33 135l193 625h313zM398 1186h-207l235 325h248l236 -325h-207l-158 188z" />
    <glyph glyph-name="Zacute" unicode="&#x179;" horiz-adv-x="1243" 
d="M1194 1253l-719 -991h721v-262h-1155v186l735 985h-682v263h1100v-181zM967 1890l-313 -323h-228l260 323h281z" />
    <glyph glyph-name="zacute" unicode="&#x17a;" horiz-adv-x="981" 
d="M940 868l-487 -635h491v-233h-919v131l514 660h-463v233h864v-156zM836 1509l-313 -323h-228l260 323h281z" />
    <glyph glyph-name="Zdotaccent" unicode="&#x17b;" horiz-adv-x="1243" 
d="M1194 1253l-719 -991h721v-262h-1155v186l735 985h-682v263h1100v-181zM793 1704q0 -58 -42 -97.5t-110 -39.5q-67 0 -110.5 40t-43.5 97q0 59 44 97t110 38q67 0 109.5 -38t42.5 -97z" />
    <glyph glyph-name="zdotaccent" unicode="&#x17c;" horiz-adv-x="981" 
d="M940 868l-487 -635h491v-233h-919v131l514 660h-463v233h864v-156zM664 1323q0 -58 -42 -97.5t-110 -39.5q-67 0 -110.5 40t-43.5 97q0 59 44 97t110 38q67 0 109.5 -38t42.5 -97z" />
    <glyph glyph-name="longs" unicode="&#x17f;" horiz-adv-x="612" 
d="M717 1274q-63 24 -117 24q-151 0 -151 -165v-1133h-316v1151q0 170 108 276q115 113 316 113q94 0 160 -20v-246z" />
    <glyph glyph-name="Aringacute" unicode="&#x1fa;" horiz-adv-x="1440" 
d="M1425 0h-352l-102 319h-510l-101 -319h-350l512 1407q-53 54 -53 137q0 112 81 175q71 57 173 57q114 0 184 -63.5t70 -164.5q0 -80 -53 -137zM825 1546q0 42 -28.5 70.5t-77.5 28.5q-103 0 -103 -99q0 -98 103 -98q49 0 79 30q27 28 27 68zM893 584l-152 465
q-13 42 -22 120h-8q-8 -71 -23 -116l-153 -469h358zM1036 2181l-313 -323h-227l260 323h280z" />
    <glyph glyph-name="aringacute" unicode="&#x1fb;" 
d="M985 0h-299v147h-4q-103 -172 -305 -172q-152 0 -238 88q-82 84 -82 222q0 297 353 344l278 37q0 168 -182 168q-184 0 -348 -109v238q62 32 171 57q120 29 218 29q438 0 438 -437v-612zM688 485l-186 -24q-154 -20 -154 -139q0 -53 37 -88t102 -35q89 0 145 61.5
t56 155.5v69zM817 1356q0 -102 -76 -164q-70 -57 -167 -57q-102 0 -169 59t-67 156q0 105 76 166q68 55 164 55q107 0 173 -60t66 -155zM676 1354q0 40 -28 67t-74 27q-97 0 -97 -94t97 -94q46 0 74 27.5t28 66.5zM891 1982l-313 -323h-228l260 323h281z" />
    <glyph glyph-name="AEacute" unicode="&#x1fc;" horiz-adv-x="1915" 
d="M1849 0h-858v319h-471l-147 -319h-375l725 1434h1094v-263h-504v-319h469v-262h-469v-328h536v-262zM991 567v604h-78l-282 -604h360zM1526 1890l-313 -323h-228l260 323h281z" />
    <glyph glyph-name="aeacute" unicode="&#x1fd;" horiz-adv-x="1696" 
d="M1640 422h-667q20 -223 282 -223q160 0 297 80v-226q-156 -78 -378 -78q-270 0 -398 179h-4q-141 -179 -362 -179q-168 0 -260.5 83t-92.5 229q0 145 96 233t277 103l256 20q0 191 -184 191q-175 0 -344 -107v236q187 86 370 86q234 0 324 -134h4q131 134 326 134
q213 0 335.5 -133.5t122.5 -364.5v-129zM1348 616q0 220 -177 220q-75 0 -132 -62t-66 -158h375zM686 414v45l-156 -13q-184 -14 -184 -131q0 -49 38.5 -82.5t102.5 -33.5q84 0 141.5 58.5t57.5 156.5zM1180 1509l-313 -323h-228l260 323h281z" />
    <glyph glyph-name="Oslashacute" unicode="&#x1fe;" horiz-adv-x="1552" 
d="M1479 727q0 -340 -197.5 -546t-511.5 -206q-242 0 -422 134l-143 -170l-125 104l149 176q-155 193 -155 479q0 336 192 545q197 215 527 215q234 0 401 -119l129 150l125 -103l-135 -157q166 -197 166 -502zM1163 707q0 164 -53 288l-578 -676q101 -92 244 -92
q169 0 274 120q113 129 113 360zM1016 1130q-97 76 -232 76q-184 0 -290 -141q-103 -136 -103 -356q0 -147 47 -252zM1149 1890l-313 -323h-228l260 323h281z" />
    <glyph glyph-name="oslashacute" unicode="&#x1ff;" horiz-adv-x="1251" 
d="M1206 1010l-139 -146q113 -143 113 -338q0 -260 -149 -404.5t-410 -144.5q-199 0 -328 86l-135 -141l-119 107q55 57 137 143q-104 141 -104 338q0 259 159 403q151 138 406 138q179 0 311 -82l139 147zM772 791q-58 40 -141 40q-258 0 -258 -317q0 -72 18 -121zM881 520
q0 76 -19 131l-393 -409q61 -45 160 -45q252 0 252 323zM958 1509l-313 -323h-228l260 323h281z" />
    <glyph glyph-name="Scommaaccent" unicode="&#x218;" horiz-adv-x="1098" 
d="M1034 403q0 -178 -117 -290q-144 -138 -440 -138q-223 0 -371 80v320q171 -146 379 -146q108 0 163 47q46 40 46 99q0 69 -68 126q-54 44 -198 111q-328 155 -328 420q0 193 142.5 309.5t380.5 116.5q209 0 348 -55v-299q-145 100 -330 100q-92 0 -146.5 -40t-54.5 -105
q0 -69 48 -115q45 -43 174 -104q191 -92 273 -179q99 -106 99 -258zM712 -111l-168 -352h-194l90 352h272z" />
    <glyph glyph-name="scommaaccent" unicode="&#x219;" horiz-adv-x="901" 
d="M840 313q0 -148 -109 -238q-120 -100 -340 -100q-162 0 -297 52v256q154 -93 293 -93q150 0 150 93q0 41 -36 67t-157 72q-125 47 -182 108q-68 73 -68 193q0 147 116 236.5t314 89.5q127 0 254 -41v-244q-119 70 -250 70q-125 0 -125 -86q0 -46 35 -74q31 -24 125 -58
q138 -49 202 -112q75 -74 75 -191zM616 -111l-168 -352h-194l90 352h272z" />
    <glyph glyph-name="uni037E" unicode="&#x37e;" horiz-adv-x="555" 
d="M468 873q0 -73 -51.5 -120t-135.5 -47q-80 0 -131.5 49t-51.5 118q0 72 52.5 117.5t132.5 45.5q81 0 133 -46t52 -117zM432 251l-148 -505h-245l103 505h290z" />
    <glyph glyph-name="tonos" unicode="&#x384;" horiz-adv-x="649" 
d="M565 1508l-207 -340h-169l95 340h281z" />
    <glyph glyph-name="dieresistonos" unicode="&#x385;" horiz-adv-x="836" 
d="M867 1313q0 -56 -40 -92.5t-104 -36.5t-103.5 37.5t-39.5 91.5q0 57 40.5 92.5t102.5 35.5t103 -36t41 -92zM646 1581l-202 -372h-153l84 372h271zM257 1313q0 -56 -40 -92.5t-104 -36.5q-63 0 -103.5 37.5t-40.5 91.5q0 56 41 92t103 36q63 0 103.5 -36t40.5 -92z" />
    <glyph glyph-name="Alphatonos" unicode="&#x386;" horiz-adv-x="1496" 
d="M386 1434l-207 -340h-169l95 340h281zM1479 0h-352l-102 320h-509l-101 -320h-350l521 1434h383zM946 586l-150 462q-14 44 -23 120h-7q-7 -63 -24 -116l-152 -466h356z" />
    <glyph glyph-name="anoteleia" unicode="&#x387;" horiz-adv-x="555" 
d="M462 653q0 -73 -51.5 -119.5t-135.5 -46.5q-79 0 -130.5 48.5t-51.5 117.5q0 72 52.5 118t132.5 46q81 0 132.5 -46.5t51.5 -117.5z" />
    <glyph glyph-name="Epsilontonos" unicode="&#x388;" horiz-adv-x="1341" 
d="M1275 0h-860v1434h827v-266h-504v-320h469v-265h-469v-317h537v-266zM326 1434l-207 -340h-169l94 340h282z" />
    <glyph glyph-name="Etatonos" unicode="&#x389;" horiz-adv-x="1820" 
d="M1655 0h-323v582h-594v-582h-323v1434h323v-570h594v570h323v-1434zM326 1434l-207 -340h-169l94 340h282z" />
    <glyph glyph-name="Iotatonos" unicode="&#x38a;" horiz-adv-x="903" 
d="M327 1434l-207 -340h-169l95 340h281zM739 0h-323v1434h323v-1434z" />
    <glyph glyph-name="Omicrontonos" unicode="&#x38c;" horiz-adv-x="1732" 
d="M1658 727q0 -340 -199 -548q-196 -204 -510 -204q-306 0 -499 198q-198 201 -198 525q0 337 193 546q197 214 525 214q306 0 495 -199q193 -202 193 -532zM339 1434l-207 -340h-169l94 340h282zM1316 709q0 226 -97 350q-94 120 -257 120q-174 0 -273 -132
q-95 -126 -95 -331q0 -220 105 -345q98 -116 255 -116q161 0 258 112q104 121 104 342z" />
    <glyph glyph-name="Upsilontonos" unicode="&#x38e;" horiz-adv-x="1597" 
d="M1597 1434l-468 -924v-510h-322v504l-455 930h369l230 -535q9 -19 34 -116h3q13 68 32 112l235 539h342zM304 1434l-207 -340h-169l95 340h281z" />
    <glyph glyph-name="Omegatonos" unicode="&#x38f;" horiz-adv-x="1769" 
d="M1685 0h-601v260q262 226 262 525q0 188 -109 297q-99 99 -247 99q-147 0 -247 -93q-119 -109 -119 -313q0 -176 88 -320q57 -91 172 -195v-260h-601v260h340q-338 196 -338 569q0 291 204 465q194 164 495 164q319 0 513 -177q189 -173 189 -448q0 -380 -348 -573h347
v-260zM326 1434l-207 -340h-169l94 340h282z" />
    <glyph glyph-name="iotadieresistonos" unicode="&#x390;" horiz-adv-x="671" 
d="M653 14q-72 -33 -185 -33q-314 0 -314 335v708h316v-661q0 -130 88 -130q43 0 95 23v-242zM765 1313q0 -56 -40 -92.5t-104 -36.5t-103.5 37.5t-39.5 91.5q0 57 40.5 92.5t102.5 35.5t103 -36t41 -92zM544 1581l-202 -372h-153l84 372h271zM155 1313q0 -56 -40 -92.5
t-104 -36.5q-63 0 -103.5 37.5t-40.5 91.5q0 56 41 92t103 36q63 0 103.5 -36t40.5 -92z" />
    <glyph glyph-name="Alpha" unicode="&#x391;" horiz-adv-x="1442" 
d="M1425 0h-352l-102 320h-510l-100 -320h-351l522 1434h383zM892 586l-150 462q-15 44 -23 120h-7q-7 -63 -24 -116l-153 -466h357z" />
    <glyph glyph-name="Beta" unicode="&#x392;" horiz-adv-x="1314" 
d="M1242 428q0 -196 -141.5 -312t-386.5 -116h-550v1434h521q247 0 377 -93q122 -88 122 -244q0 -125 -90 -216q-76 -77 -189 -108v-4q155 -19 246 -113.5t91 -227.5zM843 1039q0 162 -234 162h-122v-348h141q99 0 157 50.5t58 135.5zM901 432q0 86 -63.5 136.5t-174.5 50.5
h-176v-383h175q113 0 177 55q62 52 62 141z" />
    <glyph glyph-name="Gamma" unicode="&#x393;" horiz-adv-x="1047" 
d="M1019 1168h-532v-1168h-323v1434h855v-266z" />
    <glyph glyph-name="Delta" unicode="&#x394;" horiz-adv-x="1482" 
d="M1427 0h-1369l-1 126l498 1308h381l491 -1309v-125zM1045 262l-269 769q-30 84 -36 137h-7q-6 -58 -33 -135l-270 -771h615z" />
    <glyph glyph-name="Epsilon" unicode="&#x395;" horiz-adv-x="1090" 
d="M1024 0h-860v1434h827v-266h-504v-320h469v-265h-469v-317h537v-266z" />
    <glyph glyph-name="Zeta" unicode="&#x396;" horiz-adv-x="1244" 
d="M1195 1253l-718 -987h718v-266h-1154v187l734 981h-681v266h1101v-181z" />
    <glyph glyph-name="Eta" unicode="&#x397;" horiz-adv-x="1569" 
d="M1404 0h-323v582h-594v-582h-323v1434h323v-570h594v570h323v-1434z" />
    <glyph glyph-name="Theta" unicode="&#x398;" horiz-adv-x="1553" 
d="M1479 727q0 -340 -199 -548q-196 -204 -509 -204q-306 0 -500 198q-197 201 -197 525q0 337 192 546q198 214 526 214q305 0 495 -199q192 -202 192 -532zM1138 709q0 226 -97 350q-94 120 -257 120q-174 0 -274 -132q-95 -126 -95 -331q0 -220 106 -345
q98 -116 255 -116q161 0 258 112q104 121 104 342zM1004 594h-453v244h453v-244z" />
    <glyph glyph-name="Iota" unicode="&#x399;" horiz-adv-x="651" 
d="M487 0h-323v1434h323v-1434z" />
    <glyph glyph-name="Kappa" unicode="&#x39a;" horiz-adv-x="1329" 
d="M1355 0h-407q-28 52 -209 308q-182 256 -210 310q-15 21 -38 72h-4v-690h-323v1434h323v-667h4q13 28 38 64q173 250 398 603h386q-35 -61 -252 -342q-217 -282 -253 -342q40 -67 274 -375q234 -309 273 -375z" />
    <glyph glyph-name="Lambda" unicode="&#x39b;" horiz-adv-x="1419" 
d="M1401 0h-352l-313 1039q-17 58 -27 135h-7q-7 -60 -29 -131l-315 -1043h-347l507 1434h393z" />
    <glyph glyph-name="Mu" unicode="&#x39c;" horiz-adv-x="1962" 
d="M1797 0h-318v859q0 128 12 298h-8q-22 -117 -45 -182l-330 -975h-276l-337 965q-16 45 -44 192h-9q12 -187 12 -364v-793h-290v1434h481l291 -849q40 -117 52 -193h6q16 70 57 196l276 846h470v-1434z" />
    <glyph glyph-name="Nu" unicode="&#x39d;" horiz-adv-x="1619" 
d="M1454 0h-326l-591 901q-47 72 -72 120h-5q9 -87 9 -232v-789h-305v1434h347l569 -872q30 -44 73 -118h4q-8 50 -8 196v794h305v-1434z" />
    <glyph glyph-name="Xi" unicode="&#x39e;" horiz-adv-x="1133" 
d="M1050 1166h-967v268h967v-268zM905 589h-677v264h677v-264zM1074 0h-1014v270h1014v-270z" />
    <glyph glyph-name="Omicron" unicode="&#x39f;" horiz-adv-x="1553" 
d="M1479 727q0 -340 -199 -548q-196 -204 -509 -204q-306 0 -500 198q-197 201 -197 525q0 337 192 546q198 214 526 214q305 0 495 -199q192 -202 192 -532zM1138 709q0 226 -97 350q-94 120 -257 120q-174 0 -274 -132q-95 -126 -95 -331q0 -220 106 -345
q98 -116 255 -116q161 0 258 112q104 121 104 342z" />
    <glyph glyph-name="Pi" unicode="&#x3a0;" horiz-adv-x="1567" 
d="M1404 0h-323v1152h-594v-1152h-323v1434h1240v-1434z" />
    <glyph glyph-name="Rho" unicode="&#x3a1;" horiz-adv-x="1259" 
d="M1213 977q0 -211 -150 -345q-157 -139 -423 -139h-153v-493h-323v1434h506q543 0 543 -457zM873 965q0 221 -258 221h-128v-446h128q258 0 258 225z" />
    <glyph glyph-name="Sigma" unicode="&#x3a3;" horiz-adv-x="1164" 
d="M1125 0h-1083v172l462 554l-437 523v185h996v-265h-540l353 -429l-384 -480h633v-260z" />
    <glyph glyph-name="Tau" unicode="&#x3a4;" horiz-adv-x="1201" 
d="M1171 1168h-410v-1168h-323v1168h-407v266h1140v-266z" />
    <glyph glyph-name="Upsilon" unicode="&#x3a5;" horiz-adv-x="1245" 
d="M1245 1434l-468 -924v-510h-322v504l-455 930h369l230 -535q9 -19 34 -116h3q13 68 32 112l235 539h342z" />
    <glyph glyph-name="Phi" unicode="&#x3a6;" horiz-adv-x="1670" 
d="M1594 756q0 -250 -165.5 -414t-421.5 -164h-22v-198h-300v198h-23q-260 0 -425 164q-162 161 -162 408q0 245 171 401q166 152 417 152h22v149h300v-150h23q255 0 420.5 -152.5t165.5 -393.5zM1281 747q0 140 -75 227t-202 87h-19v-637h19q124 0 200.5 86.5t76.5 236.5z
M687 424v637h-18q-131 0 -207 -93q-72 -87 -72 -223q0 -151 78 -237q75 -84 200 -84h19z" />
    <glyph glyph-name="Chi" unicode="&#x3a7;" horiz-adv-x="1342" 
d="M1339 1434l-441 -711l430 -723h-382l-240 466q-12 23 -28 98h-4q-7 -34 -32 -101l-252 -463h-386l464 717l-419 717h392l211 -431q19 -39 41 -121h4q12 43 45 125l236 427h361z" />
    <glyph glyph-name="Psi" unicode="&#x3a8;" horiz-adv-x="1691" 
d="M986 1434v-811h24q263 0 263 294v517h285v-539q0 -242 -152.5 -390.5t-396.5 -150.5h-23v-354h-280v354h-24q-235 2 -388 144q-161 149 -161 396v540h285v-517q0 -293 263 -294h25v811h280z" />
    <glyph glyph-name="Omega" unicode="&#x3a9;" horiz-adv-x="1568" 
d="M1484 0h-601v260q263 226 263 525q0 188 -110 297q-99 99 -247 99q-147 0 -247 -93q-118 -109 -118 -313q0 -176 88 -320q56 -91 171 -195v-260h-601v260h340q-338 196 -338 569q0 291 204 465q194 164 495 164q320 0 513 -177q189 -173 189 -448q0 -380 -348 -573h347
v-260z" />
    <glyph glyph-name="Iotadieresis" unicode="&#x3aa;" horiz-adv-x="649" 
d="M487 0h-323v1434h323v-1434zM713 1704q0 -59 -42 -98t-112 -39q-68 0 -110.5 39.5t-42.5 97.5q0 60 43.5 98.5t109.5 38.5q67 0 110.5 -39t43.5 -98zM254 1704q0 -59 -42 -98t-111 -39q-68 0 -111 39.5t-43 97.5q0 60 43.5 98.5t110.5 38.5t110 -38.5t43 -98.5z" />
    <glyph glyph-name="Upsilondieresis" unicode="&#x3ab;" horiz-adv-x="1243" 
d="M1245 1434l-467 -924v-510h-323v504l-455 930h369l231 -535q6 -13 33 -117h4q13 73 31 113l235 539h342zM1012 1704q0 -59 -42 -98t-112 -39q-68 0 -110.5 39.5t-42.5 97.5q0 60 43.5 98.5t109.5 38.5q67 0 110.5 -39t43.5 -98zM553 1704q0 -59 -42 -98t-111 -39
q-68 0 -111 39.5t-43 97.5q0 60 43.5 98.5t110.5 38.5t110 -38.5t43 -98.5z" />
    <glyph glyph-name="alphatonos" unicode="&#x3ac;" horiz-adv-x="1304" 
d="M1266 1024l-214 -498q70 -219 166 -526h-315l-47 214h-6q-123 -239 -358 -239q-195 0 -308 142q-111 138 -111 366q0 251 131.5 408.5t347.5 157.5q247 0 334 -211h5l56 186h319zM795 526q-58 283 -203 283q-87 0 -144 -82q-59 -86 -59 -225q0 -135 51 -212
q47 -70 119 -70q141 0 221 259zM881 1508l-207 -340h-169l95 340h281z" />
    <glyph glyph-name="epsilontonos" unicode="&#x3ad;" horiz-adv-x="948" 
d="M883 21q-153 -46 -366 -46q-210 0 -330 77t-120 220q0 198 230 253v5q-76 19 -130 76q-63 66 -63 155q0 133 106 208q113 80 327 80q167 0 302 -41v-232q-144 60 -259 60q-154 0 -154 -100q0 -117 205 -117q69 0 117 7v-208q-61 6 -146 6q-214 0 -214 -120
q0 -116 199 -116q142 0 296 66v-233zM773 1508l-207 -340h-169l95 340h281z" />
    <glyph glyph-name="etatonos" unicode="&#x3ae;" horiz-adv-x="1252" 
d="M1122 -395h-319v936q0 238 -167 238q-83 0 -135 -61t-52 -157v-561h-316v676q0 263 -41 348h324q31 -66 31 -164h5q112 189 330 189q340 0 340 -422v-1022zM892 1508l-207 -340h-169l95 340h281z" />
    <glyph glyph-name="iotatonos" unicode="&#x3af;" horiz-adv-x="671" 
d="M653 14q-72 -33 -185 -33q-314 0 -314 335v708h316v-661q0 -130 88 -130q43 0 95 23v-242zM577 1508l-207 -340h-169l95 340h281z" />
    <glyph glyph-name="upsilondieresistonos" unicode="&#x3b0;" horiz-adv-x="1260" 
d="M1158 474q0 -237 -140.5 -368t-383.5 -131q-251 0 -384 131q-125 123 -125 338v580h316v-542q0 -127 58 -194q53 -61 144 -61q197 0 197 243q0 258 -129 554h329q118 -272 118 -550zM1050 1313q0 -56 -40 -92.5t-104 -36.5t-103.5 37.5t-39.5 91.5q0 57 40.5 92.5
t102.5 35.5t103 -36t41 -92zM829 1581l-202 -372h-153l84 372h271zM440 1313q0 -56 -40 -92.5t-104 -36.5q-63 0 -103.5 37.5t-40.5 91.5q0 56 41 92t103 36q63 0 103.5 -36t40.5 -92z" />
    <glyph glyph-name="alpha" unicode="&#x3b1;" horiz-adv-x="1304" 
d="M1266 1024l-214 -498q70 -219 166 -526h-315l-47 214h-6q-123 -239 -358 -239q-195 0 -308 142q-111 138 -111 366q0 251 131.5 408.5t347.5 157.5q247 0 334 -211h5l56 186h319zM795 526q-58 283 -203 283q-87 0 -144 -82q-59 -86 -59 -225q0 -135 51 -212
q47 -70 119 -70q141 0 221 259z" />
    <glyph glyph-name="beta" unicode="&#x3b2;" horiz-adv-x="1274" 
d="M1204 412q0 -195 -135 -315.5t-358 -120.5q-135 0 -262 49v-419h-316v1442q0 221 134 354.5t365 133.5q232 0 361 -112q121 -104 121 -276q0 -124 -75 -218q-70 -86 -180 -121v-4q161 -32 253 -136.5t92 -256.5zM882 422q0 236 -319 248v221q104 7 167.5 68t63.5 159
q0 82 -44 129t-119 47q-182 0 -182 -236v-774q107 -66 218 -66q215 0 215 204z" />
    <glyph glyph-name="gamma" unicode="&#x3b3;" horiz-adv-x="1161" 
d="M1099 917q0 -277 -122 -537q-85 -182 -288 -454q0 -319 -4 -407h-322q19 199 19 501q-34 188 -171 516q-127 303 -239 488h366q212 -416 279 -747h4q174 313 174 602q0 62 -12 145h309q7 -69 7 -107z" />
    <glyph glyph-name="delta" unicode="&#x3b4;" horiz-adv-x="1252" 
d="M1180 494q0 -228 -138 -367q-151 -152 -425 -152q-258 0 -410 152q-135 135 -135 332q0 340 353 473q-204 125 -204 308q0 140 127 221q119 75 309 75q167 0 375 -77v-298q-196 133 -351 133q-138 0 -138 -86q0 -48 72 -100q45 -32 196 -113q369 -199 369 -501zM858 482
q0 183 -235 309q-92 -31 -154 -103q-76 -87 -76 -205t63.5 -192t171.5 -74q110 0 172 78q58 72 58 187z" />
    <glyph glyph-name="epsilon" unicode="&#x3b5;" horiz-adv-x="948" 
d="M883 21q-153 -46 -366 -46q-210 0 -330 77t-120 220q0 198 230 253v5q-76 19 -130 76q-63 66 -63 155q0 133 106 208q113 80 327 80q167 0 302 -41v-232q-144 60 -259 60q-154 0 -154 -100q0 -117 205 -117q69 0 117 7v-208q-61 6 -146 6q-214 0 -214 -120
q0 -116 199 -116q142 0 296 66v-233z" />
    <glyph glyph-name="zeta" unicode="&#x3b6;" horiz-adv-x="953" 
d="M949 -89q0 -124 -89 -220h-339q116 80 116 172q0 51 -53.5 86.5t-187.5 72.5q-330 79 -330 434q0 362 522 827v4h-384v229h690v-231q-505 -469 -505 -790q0 -111 65 -175q55 -55 175 -90q149 -44 221 -104q99 -81 99 -215z" />
    <glyph glyph-name="eta" unicode="&#x3b7;" horiz-adv-x="1252" 
d="M1122 -395h-319v936q0 238 -167 238q-83 0 -135 -61t-52 -157v-561h-316v676q0 263 -41 348h324q31 -66 31 -164h5q112 189 330 189q340 0 340 -422v-1022z" />
    <glyph glyph-name="theta" unicode="&#x3b8;" horiz-adv-x="1252" 
d="M1180 776q0 -373 -144 -584q-147 -217 -416 -217q-258 0 -403 206t-145 574q0 371 151 578q150 204 413 204q272 0 416 -225q128 -202 128 -536zM854 878q-22 415 -227 415t-230 -415h457zM854 650h-458q21 -431 233 -431q204 0 225 431z" />
    <glyph glyph-name="iota" unicode="&#x3b9;" horiz-adv-x="671" 
d="M653 14q-72 -33 -185 -33q-314 0 -314 335v708h316v-661q0 -130 88 -130q43 0 95 23v-242z" />
    <glyph glyph-name="kappa" unicode="&#x3ba;" horiz-adv-x="1167" 
d="M1168 0h-368l-261 421l-90 -93v-328h-316v1024h316v-422l189 237q160 200 306 200q90 0 137 -13v-257q-35 13 -89 13q-68 0 -158 -95l-73 -77z" />
    <glyph glyph-name="lambda" unicode="&#x3bb;" horiz-adv-x="1124" 
d="M1103 0h-332l-198 708l-229 -708h-339l445 1016l-38 106q-45 127 -152 127q-70 0 -141 -37v271q82 27 198 27q163 0 263 -101q81 -84 142 -265z" />
    <glyph glyph-name="mu" unicode="&#x3bc;" horiz-adv-x="1255" 
d="M1161 0h-324q-25 71 -25 154h-4q-58 -177 -216 -177q-97 0 -140 64h-3v-436h-316v1419h316v-589q0 -207 170 -207q184 0 184 254v542h319v-710q0 -236 39 -314z" />
    <glyph glyph-name="nu" unicode="&#x3bd;" horiz-adv-x="1134" 
d="M1044 782q0 -356 -374 -782h-285l-409 1024h336l263 -770q174 220 174 491q0 83 -20 170q-18 78 -40 109h316q39 -71 39 -242z" />
    <glyph glyph-name="xi" unicode="&#x3be;" horiz-adv-x="978" 
d="M964 -75q0 -128 -89 -234h-340q117 75 117 164q0 49 -39 78q-47 36 -169 61q-380 78 -380 400q0 151 103 264q94 105 248 152q-142 66 -142 214q0 177 218 258v5q-86 -1 -317 0v229h694v-222q-129 -26 -214 -91q-96 -72 -96 -168q0 -109 100 -157q22 0 173 8v-252
q-68 4 -143 4q-124 0 -208 -52q-93 -58 -93 -157q0 -152 223 -199q170 -36 250 -95q104 -75 104 -210z" />
    <glyph glyph-name="omicron" unicode="&#x3bf;" horiz-adv-x="1252" 
d="M1180 526q0 -253 -147 -400q-150 -151 -413 -151q-256 0 -402 143.5t-146 389.5q0 258 158 403q151 138 406 138q264 0 410 -155q134 -141 134 -368zM858 520q0 287 -230 287q-234 0 -234 -295t236 -295q228 0 228 303z" />
    <glyph glyph-name="pi" unicode="&#x3c0;" horiz-adv-x="1417" 
d="M1352 791h-222v-414q0 -144 87 -144q45 0 94 23v-242q-84 -32 -176 -32q-320 0 -320 342v467h-248v-480q0 -211 -41 -311h-321q47 121 47 328v463q-121 -2 -242 -84v254q88 63 246 63h1096v-233z" />
    <glyph glyph-name="rho" unicode="&#x3c1;" horiz-adv-x="1266" 
d="M1194 520q0 -247 -126 -396t-340 -149q-169 0 -278 95h-4v-465h-317v903q0 238 117 378q135 163 410 163q247 0 392.5 -142t145.5 -387zM872 513q0 127 -62 210.5t-162 83.5q-202 0 -202 -266v-234q82 -90 198 -90q228 0 228 296z" />
    <glyph glyph-name="sigma1" unicode="&#x3c2;" horiz-adv-x="999" 
d="M955 -88q0 -129 -89 -221h-332q117 80 117 172q0 98 -201 142q-180 38 -279.5 151t-99.5 282q0 288 185 459q164 152 394 152q161 0 261 -50v-268q-98 76 -221 76q-125 0 -209 -96q-87 -97 -87 -245q0 -105 67 -162q55 -46 179 -76q315 -77 315 -316z" />
    <glyph glyph-name="sigma" unicode="&#x3c3;" horiz-adv-x="1255" 
d="M1238 796h-225q108 -137 108 -318q0 -228 -133 -363q-138 -140 -382 -140q-247 0 -391 147q-143 144 -143 388q0 243 132 375q141 139 417 139h617v-228zM799 511q0 161 -77 285h-72q-255 0 -255 -299q0 -129 57 -204.5t151 -75.5q95 0 146 80q50 77 50 214z" />
    <glyph glyph-name="tau" unicode="&#x3c4;" horiz-adv-x="1124" 
d="M1076 796h-359v-433q0 -130 106 -130q52 0 106 22v-241q-76 -33 -206 -33q-323 0 -323 335v480h-86q-150 0 -280 -102v251q93 79 307 79h735v-228z" />
    <glyph glyph-name="upsilon" unicode="&#x3c5;" horiz-adv-x="1260" 
d="M1158 474q0 -237 -140.5 -368t-383.5 -131q-251 0 -384 131q-125 123 -125 338v580h316v-542q0 -127 58 -194q53 -61 144 -61q197 0 197 243q0 258 -129 554h329q118 -272 118 -550z" />
    <glyph glyph-name="phi" unicode="&#x3c6;" horiz-adv-x="1538" 
d="M1466 496q0 -233 -142 -375q-146 -146 -395 -146h-21v-456h-285v456h-20q-243 0 -387 145.5t-144 389.5q0 304 171 514h328q-81 -76 -139 -214q-61 -147 -61 -287q0 -147 69 -230q64 -77 165 -77h18v455q0 180 96.5 279t278.5 99q218 0 341 -142q127 -146 127 -411z
M1165 515q0 143 -50 222q-44 71 -112 71q-95 0 -95 -118v-474h25q100 0 163 73q69 80 69 226z" />
    <glyph glyph-name="chi" unicode="&#x3c7;" horiz-adv-x="1134" 
d="M1135 -458q-51 -21 -145 -21q-116 0 -197 76q-77 73 -151 246l-96 228l-239 -534h-334l438 801l-128 296q-71 166 -145 166q-48 0 -100 -26v255q47 20 153 20q114 0 185 -58q68 -54 117 -176l88 -217l178 426h337l-375 -690l167 -376q47 -105 75 -141q36 -45 85 -45
q44 0 87 22v-252z" />
    <glyph glyph-name="psi" unicode="&#x3c8;" horiz-adv-x="1620" 
d="M1498 559q0 -277 -150 -434q-141 -149 -370 -149h-26v-457h-285v457h-26q-228 0 -370 149q-150 157 -150 434v465h296v-465q0 -170 72 -260q63 -79 163 -79h15v1111h285v-1111h15q100 0 163 79q72 90 72 260v465h296v-465z" />
    <glyph glyph-name="omega" unicode="&#x3c9;" horiz-adv-x="1703" 
d="M1611 482q0 -236 -118.5 -371t-325.5 -135q-222 0 -315 176h-4q-98 -176 -315 -176q-210 0 -328 142q-113 136 -113 365q0 254 129 541h321q-153 -296 -153 -543q0 -253 159 -253q156 0 156 241v281h296v-281q0 -241 154 -241q159 0 159 253q0 247 -153 543h321
q130 -287 130 -542z" />
    <glyph glyph-name="iotadieresis" unicode="&#x3ca;" horiz-adv-x="671" 
d="M653 14q-72 -33 -185 -33q-314 0 -314 335v708h316v-661q0 -130 88 -130q43 0 95 23v-242zM710 1310q0 -59 -42 -98t-112 -39q-68 0 -110.5 39.5t-42.5 97.5q0 60 43.5 98.5t109.5 38.5q67 0 110.5 -39t43.5 -98zM251 1310q0 -59 -42 -98t-111 -39q-68 0 -111 39.5
t-43 97.5q0 60 43.5 98.5t110.5 38.5t110 -38.5t43 -98.5z" />
    <glyph glyph-name="upsilondieresis" unicode="&#x3cb;" horiz-adv-x="1260" 
d="M1158 474q0 -237 -140.5 -368t-383.5 -131q-251 0 -384 131q-125 123 -125 338v580h316v-542q0 -127 58 -194q53 -61 144 -61q197 0 197 243q0 258 -129 554h329q118 -272 118 -550zM997 1310q0 -59 -42 -98t-112 -39q-68 0 -110.5 39.5t-42.5 97.5q0 60 43.5 98.5
t109.5 38.5q67 0 110.5 -39t43.5 -98zM538 1310q0 -59 -42 -98t-111 -39q-68 0 -111 39.5t-43 97.5q0 60 43.5 98.5t110.5 38.5t110 -38.5t43 -98.5z" />
    <glyph glyph-name="omicrontonos" unicode="&#x3cc;" horiz-adv-x="1251" 
d="M1180 526q0 -252 -147 -400q-150 -151 -412 -151q-257 0 -403 143.5t-146 389.5q0 259 158 403q150 138 405 138q264 0 411 -154q134 -142 134 -369zM858 520q0 287 -229 287q-109 0 -171 -74q-65 -77 -65 -221q0 -295 238 -295q227 0 227 303zM871 1508l-207 -340h-169
l95 340h281z" />
    <glyph glyph-name="upsilontonos" unicode="&#x3cd;" horiz-adv-x="1260" 
d="M1158 474q0 -237 -140.5 -368t-383.5 -131q-251 0 -384 131q-125 123 -125 338v580h316v-542q0 -127 58 -194q53 -61 144 -61q197 0 197 243q0 258 -129 554h329q118 -272 118 -550zM849 1508l-207 -340h-169l95 340h281z" />
    <glyph glyph-name="omegatonos" unicode="&#x3ce;" horiz-adv-x="1703" 
d="M1611 482q0 -236 -118.5 -371t-325.5 -135q-222 0 -315 176h-4q-98 -176 -315 -176q-210 0 -328 142q-113 136 -113 365q0 254 129 541h321q-153 -296 -153 -543q0 -253 159 -253q156 0 156 241v281h296v-281q0 -241 154 -241q159 0 159 253q0 247 -153 543h321
q130 -287 130 -542zM1094 1508l-207 -340h-169l95 340h281z" />
    <glyph glyph-name="afii10023" unicode="&#x401;" horiz-adv-x="1090" 
d="M1024 0h-860v1434h827v-263h-504v-319h469v-262h-469v-328h537v-262zM966 1704q0 -59 -42 -98t-112 -39q-68 0 -110.5 39.5t-42.5 97.5q0 60 43.5 98.5t109.5 38.5q67 0 110.5 -39t43.5 -98zM507 1704q0 -59 -42 -98t-111 -39q-68 0 -111 39.5t-43 97.5q0 60 43.5 98.5
t110.5 38.5t110 -38.5t43 -98.5z" />
    <glyph glyph-name="afii10051" unicode="&#x402;" horiz-adv-x="1545" 
d="M1470 410q0 -196 -101 -308q-106 -116 -304 -116q-121 0 -193 28v236q62 -29 134 -29q67 0 110 49t43 138q0 219 -248 219h-178v-627h-323v1169h-379v265h1140v-265h-438v-305h232q235 0 370 -122t135 -332z" />
    <glyph glyph-name="afii10052" unicode="&#x403;" horiz-adv-x="1047" 
d="M1018 1167h-531v-1167h-323v1434h854v-267zM924 1890l-313 -323h-228l260 323h281z" />
    <glyph glyph-name="afii10053" unicode="&#x404;" horiz-adv-x="1277" 
d="M1190 51q-157 -76 -410 -76q-346 0 -535 210q-171 191 -171 501q0 359 202 567q200 205 539 205q217 0 375 -53v-297q-152 86 -352 86q-177 0 -285 -96q-103 -92 -127 -258h553v-256h-551q20 -161 123 -251q106 -93 283 -93q199 0 356 92v-281z" />
    <glyph glyph-name="afii10054" unicode="&#x405;" horiz-adv-x="1098" 
d="M1034 403q0 -178 -117 -290q-144 -138 -440 -138q-223 0 -371 80v320q171 -146 379 -146q108 0 163 47q46 40 46 99q0 69 -68 126q-54 44 -198 111q-328 155 -328 420q0 193 142.5 309.5t380.5 116.5q209 0 348 -55v-299q-145 100 -330 100q-92 0 -146.5 -40t-54.5 -105
q0 -69 48 -115q45 -43 174 -104q191 -92 273 -179q99 -106 99 -258z" />
    <glyph glyph-name="afii10056" unicode="&#x407;" horiz-adv-x="649" 
d="M487 0h-323v1434h323v-1434zM713 1704q0 -59 -42 -98t-112 -39q-68 0 -110.5 39.5t-42.5 97.5q0 60 43.5 98.5t109.5 38.5q67 0 110.5 -39t43.5 -98zM254 1704q0 -59 -42 -98t-111 -39q-68 0 -111 39.5t-43 97.5q0 60 43.5 98.5t110.5 38.5t110 -38.5t43 -98.5z" />
    <glyph glyph-name="afii10058" unicode="&#x409;" horiz-adv-x="2117" 
d="M2060 467q0 -220 -138 -342q-140 -125 -396 -125h-518v1165h-287q-64 -470 -162 -866q-79 -319 -356 -319q-99 0 -180 30v264q57 -28 106 -28q54 0 87 47q29 41 58 149q101 363 185 992h872v-549h211q518 0 518 -418zM1720 444q0 197 -237 197h-152v-395h146
q243 0 243 198z" />
    <glyph glyph-name="afii10059" unicode="&#x40a;" horiz-adv-x="2142" 
d="M2085 471q0 -223 -139 -347t-396 -124h-516v606h-547v-606h-323v1434h323v-553h547v553h322v-541h213q516 0 516 -422zM1745 449q0 192 -236 192h-153v-393h147q242 0 242 201z" />
    <glyph glyph-name="afii10060" unicode="&#x40b;" horiz-adv-x="1637" 
d="M1542 0h-321v360q0 228 -242 228h-217v-588h-324v1169h-407v265h1140v-265h-409v-309h274q249 0 377.5 -122.5t128.5 -352.5v-385z" />
    <glyph glyph-name="afii10061" unicode="&#x40c;" horiz-adv-x="1329" 
d="M1356 0h-408l-418 623q-13 20 -38 79h-5v-702h-323v1434h323v-678h5q12 27 40 80l396 598h385l-500 -684zM1047 1890l-313 -323h-228l260 323h281z" />
    <glyph glyph-name="afii10062" unicode="&#x40e;" horiz-adv-x="1259" 
d="M1081 1874q-11 -135 -126 -220q-118 -87 -296 -87q-172 0 -292 88t-123 219h219q4 -71 59.5 -113.5t141.5 -42.5q83 0 137.5 42t58.5 114h221zM1268 1434l-449 -983q-123 -270 -233 -372q-113 -104 -289 -104q-115 0 -186 33v295q82 -53 170 -53q120 0 213 196l-471 988
h368l238 -574q21 -51 33 -117h2q9 50 34 113l230 578h340z" />
    <glyph glyph-name="afii10145" unicode="&#x40f;" horiz-adv-x="1566" 
d="M1405 0h-492v-324h-264v324h-485v1434h323v-1158h594v1158h324v-1434z" />
    <glyph glyph-name="afii10017" unicode="&#x410;" horiz-adv-x="1440" 
d="M1425 0h-352l-102 319h-510l-101 -319h-350l522 1434h383zM897 567l-154 482q-18 57 -24 129h-8q-6 -66 -25 -125l-156 -486h367z" />
    <glyph glyph-name="afii10018" unicode="&#x411;" horiz-adv-x="1314" 
d="M1245 455q0 -214 -130 -333q-134 -122 -382 -122h-569v1434h923v-265h-600v-313h277q236 0 362 -113q119 -106 119 -288zM903 434q0 187 -217 187h-199v-385h189q227 0 227 198z" />
    <glyph glyph-name="afii10019" unicode="&#x412;" horiz-adv-x="1313" 
d="M1241 428q0 -196 -140.5 -312t-385.5 -116h-551v1434h522q247 0 376 -93q122 -88 122 -243q0 -125 -90 -216q-76 -77 -189 -108v-4q155 -19 247 -116q89 -93 89 -226zM844 1038q0 158 -236 158h-121v-340h142q99 0 157 49t58 133zM901 432q0 86 -63 135t-174 49h-177
v-378h175q112 0 177 53q62 53 62 141z" />
    <glyph glyph-name="afii10020" unicode="&#x413;" horiz-adv-x="1047" 
d="M1018 1167h-531v-1167h-323v1434h854v-267z" />
    <glyph glyph-name="afii10021" unicode="&#x414;" horiz-adv-x="1587" 
d="M1513 -324h-264v324h-950v-324h-260v588h133q278 503 307 1170h830v-1170h204v-588zM985 264v901h-244q-11 -196 -75 -443q-66 -253 -162 -458h481z" />
    <glyph glyph-name="afii10022" unicode="&#x415;" horiz-adv-x="1090" 
d="M1024 0h-860v1434h827v-263h-504v-319h469v-262h-469v-328h537v-262z" />
    <glyph glyph-name="afii10024" unicode="&#x416;" horiz-adv-x="2033" 
d="M2042 0h-402l-423 618q-18 26 -39 72h-4v-690h-316v690h-4q-11 -23 -39 -72l-424 -618h-401l547 748l-506 686h385l399 -600q26 -39 39 -66h4v666h316v-666h4q13 27 39 66l399 600h385l-506 -686z" />
    <glyph glyph-name="afii10025" unicode="&#x417;" horiz-adv-x="1144" 
d="M1065 410q0 -197 -136 -310q-150 -125 -446 -125q-269 0 -411 78v283q170 -115 389 -115q270 0 270 195q0 198 -297 198h-184v242h176q264 0 264 186q0 170 -225 170q-161 0 -344 -102v264q184 84 407 84q245 0 375 -106q119 -96 119 -256q0 -127 -68 -217
q-74 -97 -215 -129v-5q157 -20 244 -115q82 -90 82 -220z" />
    <glyph glyph-name="afii10026" unicode="&#x418;" horiz-adv-x="1619" 
d="M1454 0h-305v788q0 134 10 232h-6q-22 -43 -72 -119l-592 -901h-325v1434h305v-793q0 -145 -8 -197h4q5 12 74 117l569 873h346v-1434z" />
    <glyph glyph-name="afii10027" unicode="&#x419;" horiz-adv-x="1619" 
d="M1266 1874q-12 -135 -128 -221t-294 -86q-173 0 -293 88t-123 219h219q5 -71 60 -113.5t141 -42.5q84 0 138 42t58 114h222zM1454 0h-305v788q0 134 10 232h-6q-22 -43 -72 -119l-592 -901h-325v1434h305v-793q0 -145 -8 -197h4q5 12 74 117l569 873h346v-1434z" />
    <glyph glyph-name="afii10028" unicode="&#x41a;" horiz-adv-x="1329" 
d="M1356 0h-408l-418 623q-13 20 -38 79h-5v-702h-323v1434h323v-678h5q12 27 40 80l396 598h385l-500 -684z" />
    <glyph glyph-name="afii10029" unicode="&#x41b;" horiz-adv-x="1495" 
d="M1331 0h-323v1165h-287q-68 -501 -158 -850q-86 -335 -366 -335q-86 0 -174 28v258q59 -20 100 -20q58 0 93 50q28 41 58 146q98 347 185 992h872v-1434z" />
    <glyph glyph-name="afii10030" unicode="&#x41c;" horiz-adv-x="1960" 
d="M1798 0h-319v858q0 135 12 307h-8q-25 -133 -45 -190l-336 -975h-264l-342 965q-14 39 -45 200h-9q13 -201 13 -372v-793h-291v1434h473l293 -850q35 -103 51 -205h6q26 116 57 207l293 848h461v-1434z" />
    <glyph glyph-name="afii10031" unicode="&#x41d;" horiz-adv-x="1568" 
d="M1405 0h-324v582h-594v-582h-323v1434h323v-570h594v570h324v-1434z" />
    <glyph glyph-name="afii10032" unicode="&#x41e;" horiz-adv-x="1552" 
d="M1479 727q0 -340 -197.5 -546t-511.5 -206q-305 0 -499 198q-197 201 -197 525q0 337 193 546q197 214 526 214q305 0 495.5 -200t190.5 -531zM1139 709q0 226 -98 350q-94 121 -257 121q-174 0 -274 -133q-96 -127 -96 -332q0 -220 106 -345q99 -116 256 -116
q161 0 259 113q104 121 104 342z" />
    <glyph glyph-name="afii10033" unicode="&#x41f;" horiz-adv-x="1565" 
d="M1405 0h-324v1157h-594v-1157h-323v1434h1241v-1434z" />
    <glyph glyph-name="afii10034" unicode="&#x420;" horiz-adv-x="1257" 
d="M1212 977q0 -211 -149 -344q-156 -139 -422 -139h-154v-494h-323v1434h506q542 0 542 -457zM872 965q0 221 -258 221h-127v-447h127q258 0 258 226z" />
    <glyph glyph-name="afii10035" unicode="&#x421;" horiz-adv-x="1278" 
d="M1192 51q-157 -76 -410 -76q-340 0 -530 206q-178 192 -178 505q0 346 213 559t551 213q209 0 354 -53v-311q-145 86 -328 86q-195 0 -318 -119q-132 -128 -132 -352q0 -208 117 -331.5t315 -123.5q189 0 346 92v-295z" />
    <glyph glyph-name="afii10036" unicode="&#x422;" horiz-adv-x="1200" 
d="M1171 1171h-409v-1171h-324v1171h-407v263h1140v-263z" />
    <glyph glyph-name="afii10037" unicode="&#x423;" horiz-adv-x="1259" 
d="M1268 1434l-449 -983q-123 -270 -233 -372q-113 -104 -289 -104q-115 0 -186 33v295q82 -53 170 -53q120 0 213 196l-471 988h368l238 -574q21 -51 33 -117h2q9 50 34 113l230 578h340z" />
    <glyph glyph-name="afii10038" unicode="&#x424;" horiz-adv-x="1718" 
d="M1649 739q0 -249 -152 -410q-163 -173 -448 -173h-33v-164h-314v164h-34q-284 0 -447 173q-151 161 -151 410q0 242 145 394q160 165 449 165h38v164h314v-164h37q289 0 449 -164q147 -151 147 -395zM1317 731q0 147 -74 235q-77 91 -211 91h-16v-656h14q139 0 216 98
q71 89 71 232zM702 401v656h-18q-133 0 -209 -92q-74 -88 -74 -234q0 -144 70 -232q76 -98 215 -98h16z" />
    <glyph glyph-name="afii10039" unicode="&#x425;" horiz-adv-x="1341" 
d="M1335 0h-383l-247 467q-13 24 -29 96h-4q-8 -33 -33 -100l-248 -463h-385l457 717l-418 717h393l205 -430q25 -52 43 -121h4q12 42 45 125l228 426h360l-430 -711z" />
    <glyph glyph-name="afii10040" unicode="&#x426;" horiz-adv-x="1682" 
d="M1610 -324h-264v324h-1182v1434h323v-1158h594v1158h324v-1158h205v-600z" />
    <glyph glyph-name="afii10041" unicode="&#x427;" horiz-adv-x="1487" 
d="M1315 0h-324v569q-202 -110 -407 -110q-445 0 -445 428v547h322v-519q0 -186 205 -186q162 0 325 98v607h324v-1434z" />
    <glyph glyph-name="afii10042" unicode="&#x428;" horiz-adv-x="2071" 
d="M1907 0h-1743v1434h323v-1158h387v1158h322v-1158h387v1158h324v-1434z" />
    <glyph glyph-name="afii10043" unicode="&#x429;" horiz-adv-x="2184" 
d="M2111 -324h-264v324h-1683v1434h323v-1158h387v1158h322v-1158h387v1158h324v-1158h204v-600z" />
    <glyph glyph-name="afii10044" unicode="&#x42a;" horiz-adv-x="1551" 
d="M1491 475q0 -224 -138 -348q-141 -127 -397 -127h-518v1169h-407v265h731v-537h211q518 0 518 -422zM1151 453q0 200 -238 200h-151v-407h145q244 0 244 207z" />
    <glyph glyph-name="afii10045" unicode="&#x42b;" horiz-adv-x="1840" 
d="M1675 0h-321v1434h321v-1434zM1217 475q0 -224 -139 -348q-140 -127 -396 -127h-518v1434h323v-537h211q519 0 519 -422zM877 453q0 200 -238 200h-152v-407h146q244 0 244 207z" />
    <glyph glyph-name="afii10046" unicode="&#x42c;" horiz-adv-x="1276" 
d="M1217 475q0 -224 -139 -348q-140 -127 -396 -127h-518v1434h323v-537h211q519 0 519 -422zM877 453q0 200 -238 200h-152v-407h146q244 0 244 207z" />
    <glyph glyph-name="afii10047" unicode="&#x42d;" horiz-adv-x="1277" 
d="M1202 713q0 -325 -181 -525q-193 -213 -532 -213q-244 0 -401 76v281q157 -92 354 -92q361 0 408 344h-553v256h555q-62 354 -408 354q-197 0 -356 -84v291q168 57 389 57q340 0 532.5 -195t192.5 -550z" />
    <glyph glyph-name="afii10048" unicode="&#x42e;" horiz-adv-x="2179" 
d="M2105 727q0 -341 -188 -546.5t-496 -205.5q-266 0 -444 167q-181 169 -213 452h-277v-594h-323v1434h323v-570h283q45 273 221 432q181 162 453 162q297 0 479 -199.5t182 -531.5zM1763 709q0 227 -85 349t-238 122q-166 0 -256 -126q-86 -121 -86 -335q0 -232 91 -352
q85 -113 238 -113q156 0 244 113q92 119 92 342z" />
    <glyph glyph-name="afii10049" unicode="&#x42f;" horiz-adv-x="1311" 
d="M1147 0h-324v557h-86q-121 0 -196 -182l-156 -375h-373l201 428q85 181 223 225v4q-317 76 -317 367q0 188 134 296q141 114 400 114h494v-1434zM823 799v389h-135q-227 0 -227 -189q0 -88 60 -144t167 -56h135z" />
    <glyph glyph-name="afii10065" unicode="&#x430;" 
d="M985 0h-299v147h-4q-103 -172 -305 -172q-152 0 -238 88q-82 84 -82 222q0 297 353 344l278 37q0 168 -182 168q-184 0 -348 -109v238q62 32 171 57q120 29 218 29q438 0 438 -437v-612zM688 485l-186 -24q-154 -20 -154 -139q0 -53 37 -88t102 -35q89 0 145 61.5
t56 155.5v69z" />
    <glyph glyph-name="afii10066" unicode="&#x431;" horiz-adv-x="1246" 
d="M1176 510q0 -240 -145 -385q-150 -150 -408 -150q-272 0 -411 177q-134 169 -134 485q0 578 325 743q89 45 267 73q115 18 231 36q89 23 139 51v-250q-36 -28 -114 -47q-94 -14 -187 -29q-142 -22 -194 -51q-116 -63 -139 -297h4q113 131 305 131q221 0 343 -133
q118 -130 118 -354zM854 496q0 132 -66 205q-63 69 -165 69q-71 0 -134 -38q-59 -35 -88 -87q-2 -25 -2 -94q0 -147 57 -237q62 -97 175 -97q99 0 161 76t62 203z" />
    <glyph glyph-name="afii10067" unicode="&#x432;" horiz-adv-x="1187" 
d="M1106 307q0 -135 -93 -218q-100 -89 -278 -89h-602v1024h572q366 0 366 -250q0 -96 -67 -160q-57 -54 -140 -71q116 -15 181 -82q61 -63 61 -154zM748 729q0 102 -136 102h-163v-215h155q144 0 144 113zM782 319q0 111 -155 111h-178v-233h182q151 0 151 122z" />
    <glyph glyph-name="afii10068" unicode="&#x433;" horiz-adv-x="840" 
d="M801 784h-352v-784h-316v1024h668v-240z" />
    <glyph glyph-name="afii10069" unicode="&#x434;" horiz-adv-x="1269" 
d="M1219 -250h-238v250h-729v-250h-234v473h91q217 340 229 801h719v-801h162v-473zM741 223v580h-157q-23 -324 -168 -580h325z" />
    <glyph glyph-name="afii10070" unicode="&#x435;" horiz-adv-x="1108" 
d="M1053 422h-668q16 -223 281 -223q168 0 297 80v-228q-142 -76 -369 -76q-251 0 -388 140q-134 137 -134 381q0 270 166 422q143 131 346 131q233 0 357 -145q112 -131 112 -349v-133zM760 616q0 220 -178 220q-79 0 -136 -68q-52 -62 -63 -152h377z" />
    <glyph glyph-name="afii10072" unicode="&#x436;" horiz-adv-x="1736" 
d="M1731 0h-373l-330 512h-4v-512h-311v512h-4l-328 -512h-373l389 537l-379 487h371l320 -485h4v485h311v-485h4l320 485h370l-379 -487z" />
    <glyph glyph-name="afii10073" unicode="&#x437;" horiz-adv-x="983" 
d="M913 289q0 -309 -501 -309q-191 0 -332 47v229q147 -68 295 -68q213 0 213 117q0 121 -232 121h-143v195h145q199 0 199 116q0 103 -178 103q-136 0 -268 -60v217q176 52 325 52q447 0 447 -277q0 -193 -238 -237v-5q129 -11 201 -79q67 -64 67 -162z" />
    <glyph glyph-name="afii10074" unicode="&#x438;" horiz-adv-x="1285" 
d="M1151 0h-287v670q-38 -77 -84 -146l-348 -524h-299v1024h289v-649q32 69 70 125l348 524h311v-1024z" />
    <glyph glyph-name="afii10075" unicode="&#x439;" horiz-adv-x="1285" 
d="M1067 1493q-11 -134 -127.5 -220.5t-294.5 -86.5q-173 0 -292.5 88t-123.5 219h220q4 -71 59.5 -113.5t140.5 -42.5q84 0 138 42.5t59 113.5h221zM1151 0h-287v670q-38 -77 -84 -146l-348 -524h-299v1024h289v-649q32 69 70 125l348 524h311v-1024z" />
    <glyph glyph-name="afii10076" unicode="&#x43a;" horiz-adv-x="1145" 
d="M1155 0h-379l-323 500h-4v-500h-316v1024h316v-481h4l315 481h375l-377 -487z" />
    <glyph glyph-name="afii10077" unicode="&#x43b;" horiz-adv-x="1234" 
d="M1102 0h-318v801h-174q-50 -421 -142 -600q-110 -213 -329 -213q-67 0 -123 20v215q36 -16 74 -16q106 0 170 219q54 182 98 598h744v-1024z" />
    <glyph glyph-name="afii10078" unicode="&#x43c;" horiz-adv-x="1590" 
d="M1458 0h-295v797q-9 -54 -53 -189l-199 -608h-278l-199 608q-49 151 -53 187v-795h-248v1024h416l194 -584q44 -129 50 -182q6 44 51 180l192 586h422v-1024z" />
    <glyph glyph-name="afii10079" unicode="&#x43d;" horiz-adv-x="1253" 
d="M1120 0h-317v428h-354v-428h-316v1024h316v-379h354v379h317v-1024z" />
    <glyph glyph-name="afii10080" unicode="&#x43e;" horiz-adv-x="1251" 
d="M1180 526q0 -252 -147 -400q-150 -151 -412 -151q-257 0 -403 143.5t-146 389.5q0 259 158 403q150 138 405 138q264 0 411 -154q134 -142 134 -369zM858 520q0 287 -229 287q-109 0 -171 -74q-65 -77 -65 -221q0 -295 238 -295q227 0 227 303z" />
    <glyph glyph-name="afii10081" unicode="&#x43f;" horiz-adv-x="1253" 
d="M1120 0h-317v801h-354v-801h-316v1024h987v-1024z" />
    <glyph glyph-name="afii10082" unicode="&#x440;" horiz-adv-x="1270" 
d="M1198 541q0 -256 -126.5 -411t-336.5 -155q-186 0 -282 144h-4v-590h-316v1495h316v-154h4q115 179 329 179q210 0 319 -151q97 -135 97 -357zM874 537q0 270 -210 270q-96 0 -158 -73t-62 -195v-82q0 -106 56 -173t147 -67q109 0 168 84t59 236z" />
    <glyph glyph-name="afii10083" unicode="&#x441;" horiz-adv-x="983" 
d="M909 37q-106 -62 -309 -62q-238 0 -385 147q-143 142 -143 365q0 266 162 417q156 145 413 145q182 0 262 -48v-268q-99 74 -221 74q-134 0 -213 -78q-82 -80 -82 -221q0 -135 76.5 -213t208.5 -78q118 0 231 74v-254z" />
    <glyph glyph-name="afii10084" unicode="&#x442;" horiz-adv-x="931" 
d="M899 784h-274v-784h-318v784h-276v240h868v-240z" />
    <glyph glyph-name="afii10085" unicode="&#x443;" 
d="M1108 1024l-416 -1106q-150 -399 -452 -399q-110 0 -189 26v252q63 -37 137 -37q122 0 170 115l54 127l-416 1022h350l191 -623q19 -63 28 -137h4q10 60 33 135l193 625h313z" />
    <glyph glyph-name="afii10086" unicode="&#x444;" horiz-adv-x="1606" 
d="M1538 508q0 -231 -137 -372q-145 -148 -402 -148h-49v-463h-295v463h-49q-255 0 -401 148q-137 141 -137 372q0 238 137 380q145 148 403 148h47v430h295v-430h45q260 0 405 -148q138 -141 138 -380zM1217 508q0 145 -67.5 225t-182.5 80h-17v-602h13q122 0 190 84
q64 80 64 213zM655 211v602h-16q-115 0 -182.5 -80t-67.5 -225q0 -133 64 -213q68 -84 190 -84h12z" />
    <glyph glyph-name="afii10087" unicode="&#x445;" horiz-adv-x="1123" 
d="M1118 1024l-338 -496l336 -528h-364l-150 276q-20 37 -43 93h-4q-20 -54 -39 -90l-149 -279h-363l346 510l-325 514h366l146 -287q29 -57 41 -96h4q15 45 43 98l147 285h346z" />
    <glyph glyph-name="afii10088" unicode="&#x446;" horiz-adv-x="1334" 
d="M1284 -250h-237v250h-914v1024h316v-801h354v801h317v-801h164v-473z" />
    <glyph glyph-name="afii10089" unicode="&#x447;" horiz-adv-x="1230" 
d="M1096 0h-316v354q-161 -90 -311 -90q-348 0 -348 352v408h303v-358q0 -158 141 -158q99 0 215 61v455h316v-1024z" />
    <glyph glyph-name="afii10090" unicode="&#x448;" horiz-adv-x="1765" 
d="M1632 0h-1499v1024h316v-801h274v801h317v-801h275v801h317v-1024z" />
    <glyph glyph-name="afii10091" unicode="&#x449;" horiz-adv-x="1846" 
d="M1796 -250h-237v250h-1426v1024h316v-801h274v801h317v-801h275v801h317v-801h164v-473z" />
    <glyph glyph-name="afii10092" unicode="&#x44a;" horiz-adv-x="1327" 
d="M1270 344q0 -151 -90 -244q-97 -100 -273 -100h-592v784h-288v240h606v-358h268q172 0 269 -82q100 -85 100 -240zM946 338q0 129 -155 129h-158v-266h153q160 0 160 137z" />
    <glyph glyph-name="afii10093" unicode="&#x44b;" horiz-adv-x="1668" 
d="M1536 0h-317v1024h317v-1024zM1087 344q0 -151 -89 -244q-97 -100 -273 -100h-592v1024h316v-358h270q172 0 269 -82q99 -85 99 -240zM762 338q0 129 -156 129h-157v-266h153q160 0 160 137z" />
    <glyph glyph-name="afii10094" unicode="&#x44c;" horiz-adv-x="1145" 
d="M1087 344q0 -151 -89 -244q-97 -100 -273 -100h-592v1024h316v-358h270q172 0 269 -82q99 -85 99 -240zM762 338q0 129 -156 129h-157v-266h153q160 0 160 137z" />
    <glyph glyph-name="afii10095" unicode="&#x44d;" horiz-adv-x="981" 
d="M909 506q0 -229 -135 -374q-146 -157 -399 -157q-166 0 -299 68v225q110 -73 246 -73q238 0 270 219h-381v186h383q-32 227 -279 227q-132 0 -231 -69v235q121 56 278 56q269 0 408 -140.5t139 -402.5z" />
    <glyph glyph-name="afii10096" unicode="&#x44e;" horiz-adv-x="1809" 
d="M1737 526q0 -254 -142 -400q-146 -151 -407 -151q-230 0 -368 118q-135 115 -161 325h-210v-418h-316v1024h316v-381h219q38 193 180 299.5t354 106.5q264 0 406 -154q129 -140 129 -369zM1415 520q0 287 -221 287q-217 0 -217 -291q0 -299 221 -299q217 0 217 303z" />
    <glyph glyph-name="afii10097" unicode="&#x44f;" horiz-adv-x="1164" 
d="M1032 0h-313v383h-72q-83 0 -151 -147l-109 -236h-352l149 291q68 132 191 168q-256 43 -256 266q0 299 438 299h475v-1024zM719 571v252h-119q-164 0 -164 -125q0 -127 164 -127h119z" />
    <glyph glyph-name="afii10071" unicode="&#x451;" horiz-adv-x="1108" 
d="M1053 422h-668q16 -223 281 -223q168 0 297 80v-228q-142 -76 -369 -76q-251 0 -388 140q-134 137 -134 381q0 270 166 422q143 131 346 131q233 0 357 -145q112 -131 112 -349v-133zM760 616q0 220 -178 220q-79 0 -136 -68q-52 -62 -63 -152h377zM962 1323
q0 -59 -42 -98t-112 -39q-68 0 -110.5 39.5t-42.5 97.5q0 60 43.5 98.5t109.5 38.5q67 0 110.5 -39t43.5 -98zM503 1323q0 -59 -42 -98t-111 -39q-68 0 -111 39.5t-43 97.5q0 60 43.5 98.5t110.5 38.5t110 -38.5t43 -98.5z" />
    <glyph glyph-name="afii10099" unicode="&#x452;" horiz-adv-x="1267" 
d="M1171 362q0 -415 -100 -599q-116 -212 -405 -212q-66 0 -131 29v244q56 -37 110 -37q119 0 166 137q43 126 43 430q0 424 -180 424q-77 0 -133 -62.5t-56 -156.5v-559h-315v1171h-143v205h143v140h315v-140h330v-205h-330v-321h4q105 176 306 176q376 0 376 -664z" />
    <glyph glyph-name="afii10100" unicode="&#x453;" horiz-adv-x="840" 
d="M801 784h-352v-784h-316v1024h668v-240zM781 1509l-313 -323h-228l260 323h281z" />
    <glyph glyph-name="afii10101" unicode="&#x454;" horiz-adv-x="983" 
d="M903 43q-133 -68 -301 -68q-244 0 -388 145q-142 141 -142 374q0 270 158 417q149 138 405 138q148 0 262 -50v-241q-94 69 -231 69q-244 0 -279 -227h383v-186h-381q32 -219 268 -219q133 0 246 75v-227z" />
    <glyph glyph-name="afii10102" unicode="&#x455;" horiz-adv-x="901" 
d="M840 313q0 -148 -109 -238q-120 -100 -340 -100q-162 0 -297 52v256q154 -93 293 -93q150 0 150 93q0 41 -36 67t-157 72q-125 47 -182 108q-68 73 -68 193q0 147 116 236.5t314 89.5q127 0 254 -41v-244q-119 70 -250 70q-125 0 -125 -86q0 -46 35 -74q31 -24 125 -58
q138 -49 202 -112q75 -74 75 -191z" />
    <glyph glyph-name="afii10104" unicode="&#x457;" horiz-adv-x="582" 
d="M449 0h-316v1024h316v-1024zM680 1323q0 -59 -42 -98t-112 -39q-68 0 -110.5 39.5t-42.5 97.5q0 60 43.5 98.5t109.5 38.5q67 0 110.5 -39t43.5 -98zM221 1323q0 -59 -42 -98t-111 -39q-68 0 -111 39.5t-43 97.5q0 60 43.5 98.5t110.5 38.5t110 -38.5t43 -98.5z" />
    <glyph glyph-name="afii10106" unicode="&#x459;" horiz-adv-x="1798" 
d="M1739 338q0 -149 -89 -240q-96 -98 -274 -98h-592v801h-174q-50 -421 -142 -600q-110 -213 -329 -213q-67 0 -123 20v215q36 -16 74 -16q106 0 170 219q54 182 98 598h744v-371h266q172 0 270 -80q101 -83 101 -235zM1415 332q0 117 -162 117h-151v-244h151
q162 0 162 127z" />
    <glyph glyph-name="afii10107" unicode="&#x45a;" horiz-adv-x="1766" 
d="M1706 342q0 -151 -90 -243q-96 -99 -273 -99h-591v438h-303v-438h-316v1024h316v-367h303v367h317v-367h268q174 0 269 -78q100 -82 100 -237zM1382 336q0 121 -155 121h-158v-254h154q159 0 159 133z" />
    <glyph glyph-name="afii10108" unicode="&#x45b;" horiz-adv-x="1262" 
d="M1149 0h-311v553q0 225 -164 225q-88 0 -138.5 -61t-50.5 -158v-559h-315v1171h-143v205h143v140h315v-140h330v-205h-330v-321h4q116 176 316 176q344 0 344 -420v-606z" />
    <glyph glyph-name="afii10109" unicode="&#x45c;" horiz-adv-x="1145" 
d="M1155 0h-379l-323 500h-4v-500h-316v1024h316v-481h4l315 481h375l-377 -487zM945 1490l-313 -323h-228l260 323h281z" />
    <glyph glyph-name="afii10110" unicode="&#x45e;" 
d="M983 1493q-11 -134 -127.5 -220.5t-294.5 -86.5q-173 0 -292.5 88t-123.5 219h220q4 -71 59.5 -113.5t140.5 -42.5q84 0 138 42.5t59 113.5h221zM1108 1024l-416 -1106q-150 -399 -452 -399q-110 0 -189 26v252q63 -37 137 -37q122 0 170 115l54 127l-416 1022h350
l191 -623q19 -63 28 -137h4q10 60 33 135l193 625h313z" />
    <glyph glyph-name="afii10193" unicode="&#x45f;" horiz-adv-x="1253" 
d="M1120 0h-372v-311h-238v311h-377v1024h316v-801h354v801h317v-1024z" />
    <glyph glyph-name="afii10050" unicode="&#x490;" horiz-adv-x="1057" 
d="M1018 1169h-531v-1169h-323v1434h600v252h254v-517z" />
    <glyph glyph-name="afii10098" unicode="&#x491;" horiz-adv-x="890" 
d="M834 788h-385v-788h-316v1024h449v250h252v-486z" />
    <glyph glyph-name="Wgrave" unicode="&#x1e80;" horiz-adv-x="2058" 
d="M2040 1434l-379 -1434h-358l-238 920q-18 69 -23 161h-4q-9 -95 -26 -161l-244 -920h-373l-377 1434h353l202 -955q13 -58 19 -164h6q4 79 29 168l260 951h346l235 -963q13 -51 23 -154h4q4 83 21 160l198 957h326zM1243 1567h-227l-314 323h281z" />
    <glyph glyph-name="wgrave" unicode="&#x1e81;" horiz-adv-x="1632" 
d="M1616 1024l-295 -1024h-332l-151 600q-14 56 -17 131h-6q-7 -76 -20 -127l-162 -604h-328l-289 1024h322l141 -668q9 -42 15 -114h6q5 68 18 118l176 664h301l158 -668q7 -27 14 -116h7q4 56 16 116l133 668h293zM1071 1186h-227l-314 323h281z" />
    <glyph glyph-name="Wacute" unicode="&#x1e82;" horiz-adv-x="2058" 
d="M2040 1434l-379 -1434h-358l-238 920q-18 69 -23 161h-4q-9 -95 -26 -161l-244 -920h-373l-377 1434h353l202 -955q13 -58 19 -164h6q4 79 29 168l260 951h346l235 -963q13 -51 23 -154h4q4 83 21 160l198 957h326zM1372 1890l-313 -323h-228l260 323h281z" />
    <glyph glyph-name="wacute" unicode="&#x1e83;" horiz-adv-x="1632" 
d="M1616 1024l-295 -1024h-332l-151 600q-14 56 -17 131h-6q-7 -76 -20 -127l-162 -604h-328l-289 1024h322l141 -668q9 -42 15 -114h6q5 68 18 118l176 664h301l158 -668q7 -27 14 -116h7q4 56 16 116l133 668h293zM1147 1509l-313 -323h-228l260 323h281z" />
    <glyph glyph-name="Wdieresis" unicode="&#x1e84;" horiz-adv-x="2058" 
d="M2040 1434l-379 -1434h-358l-238 920q-18 69 -23 161h-4q-9 -95 -26 -161l-244 -920h-373l-377 1434h353l202 -955q13 -58 19 -164h6q4 79 29 168l260 951h346l235 -963q13 -51 23 -154h4q4 83 21 160l198 957h326zM1433 1704q0 -59 -42 -98t-112 -39q-68 0 -110.5 39.5
t-42.5 97.5q0 60 43.5 98.5t109.5 38.5q67 0 110.5 -39t43.5 -98zM974 1704q0 -59 -42 -98t-111 -39q-68 0 -111 39.5t-43 97.5q0 60 43.5 98.5t110.5 38.5t110 -38.5t43 -98.5z" />
    <glyph glyph-name="wdieresis" unicode="&#x1e85;" horiz-adv-x="1632" 
d="M1616 1024l-295 -1024h-332l-151 600q-14 56 -17 131h-6q-7 -76 -20 -127l-162 -604h-328l-289 1024h322l141 -668q9 -42 15 -114h6q5 68 18 118l176 664h301l158 -668q7 -27 14 -116h7q4 56 16 116l133 668h293zM1232 1323q0 -59 -42 -98t-112 -39q-68 0 -110.5 39.5
t-42.5 97.5q0 60 43.5 98.5t109.5 38.5q67 0 110.5 -39t43.5 -98zM773 1323q0 -59 -42 -98t-111 -39q-68 0 -111 39.5t-43 97.5q0 60 43.5 98.5t110.5 38.5t110 -38.5t43 -98.5z" />
    <glyph glyph-name="Ygrave" unicode="&#x1ef2;" horiz-adv-x="1243" 
d="M1245 1434l-467 -924v-510h-323v504l-455 930h369l231 -535q6 -13 33 -117h4q13 73 31 113l235 539h342zM867 1567h-227l-314 323h281z" />
    <glyph glyph-name="ygrave" unicode="&#x1ef3;" 
d="M1108 1024l-416 -1106q-150 -399 -452 -399q-110 0 -189 26v252q63 -37 137 -37q122 0 170 115l54 127l-416 1022h350l191 -623q19 -63 28 -137h4q10 60 33 135l193 625h313zM817 1186h-227l-314 323h281z" />
    <glyph glyph-name="afii00208" unicode="&#x2015;" horiz-adv-x="2048" 
d="M2048 436h-2048v221h2048v-221z" />
    <glyph glyph-name="underscoredbl" unicode="&#x2017;" horiz-adv-x="850" 
d="M0 -297v119h850v-119h-850zM0 -578v119h850v-119h-850z" />
    <glyph glyph-name="quotereversed" unicode="&#x201b;" horiz-adv-x="594" 
d="M500 1024h-195l-192 444h272z" />
    <glyph glyph-name="minute" unicode="&#x2032;" horiz-adv-x="600" 
d="M477 1452l-125 -442h-200l65 442h260z" />
    <glyph glyph-name="second" unicode="&#x2033;" horiz-adv-x="1010" 
d="M881 1452l-125 -444h-201l64 444h262zM486 1452l-125 -442h-203l65 442h263z" />
    <glyph glyph-name="exclamdbl" unicode="&#x203c;" horiz-adv-x="1188" 
d="M500 1434l-39 -988h-256l-37 988h332zM518 143q0 -70 -50 -118t-132 -48q-81 0 -132.5 49t-51.5 117q0 72 52.5 118t131.5 46q80 0 131 -46.5t51 -117.5zM1018 1434l-39 -988h-256l-37 988h332zM1036 143q0 -70 -50 -118t-132 -48q-81 0 -132.5 49t-51.5 117
q0 72 52.5 118t131.5 46q80 0 131 -46.5t51 -117.5z" />
    <glyph glyph-name="uni203E" unicode="&#x203e;" horiz-adv-x="850" 
d="M0 1397v119h850v-119h-850z" />
    <glyph glyph-name="nsuperior" unicode="&#x207f;" horiz-adv-x="911" 
d="M317 1436v-99q74 117 228 117q258 0 258 -283v-454h-213v442q0 139 -113 139q-61 0 -108 -47t-47 -106v-428h-213v719h208z" />
    <glyph glyph-name="franc" unicode="&#x20a3;" horiz-adv-x="1065" 
d="M758 188h-271v-188h-323v188h-164v205h164v1041h829v-263h-506v-352h465v-262h-465v-164h271v-205z" />
    <glyph glyph-name="lira" unicode="&#x20a4;" horiz-adv-x="1178" 
d="M897 516h-268v-10q0 -180 -152 -264h637v-242h-971v227q104 28 148.5 85.5t44.5 162.5v41h-172v176h172v105h-172v176h172v43q0 194 118 315q123 127 334 127q126 0 234 -49v-258q-98 66 -209 66q-184 0 -184 -230v-14h268v-176h-268v-105h268v-176z" />
    <glyph glyph-name="peseta" unicode="&#x20a7;" horiz-adv-x="2681" 
d="M1130 977q0 -211 -149 -344q-156 -139 -422 -139h-72v-494h-323v1434h424q542 0 542 -457zM791 965q0 221 -259 221h-45v-447h45q259 0 259 226zM1812 12q-70 -37 -210 -37q-167 0 -243 83q-71 78 -71 243v387h-145v213h145v221l295 90v-311h229v-213h-229v-332
q0 -159 127 -159q50 0 102 28v-213zM2576 293q0 -318 -407 -318q-162 0 -297 52v235q154 -92 293 -92q129 0 129 92q0 45 -110 84q-158 56 -203 85q-109 72 -109 196q0 145 107 224q100 75 270 75q139 0 266 -41v-223q-119 69 -250 69q-104 0 -104 -74q0 -39 107 -79
q152 -56 201 -90q107 -73 107 -195z" />
    <glyph glyph-name="afii61248" unicode="&#x2105;" horiz-adv-x="1778" 
d="M1617 421q0 -165 -91 -290q-111 -151 -308 -151q-165 0 -252 101q-72 85 -72 208q0 159 91 283q113 154 317 154q149 0 232 -82.5t83 -222.5zM1598 1434l-1238 -1434h-245l1239 1434h244zM1402 415q0 138 -108 138q-88 0 -140 -92q-44 -77 -44 -172q0 -136 114 -136
q82 0 133 87q45 77 45 175zM800 1413l-40 -173q-59 45 -144 45q-97 0 -162 -86q-60 -78 -60 -176q0 -151 135 -151q84 0 169 52l-35 -169q-97 -52 -209 -52q-136 0 -211 83q-71 78 -71 212q0 188 117 318q125 138 325 138q116 0 186 -41z" />
    <glyph glyph-name="afii61289" unicode="&#x2113;" horiz-adv-x="662" 
d="M193 657v455q0 172 34 254q53 125 199 125q102 0 162 -70q57 -66 57 -170q0 -96 -59 -223q-66 -141 -226 -362v-416q0 -65 4 -83q11 -48 54 -48q22 0 59 16q33 15 139 90v-162q-112 -88 -225 -88q-198 0 -198 242v225l-80 -98l-99 78zM360 899q83 142 95 168
q51 105 51 184q0 61 -27 95q-19 24 -49 24q-31 0 -45 -24q-25 -43 -25 -220v-227z" />
    <glyph glyph-name="afii61352" unicode="&#x2116;" horiz-adv-x="2463" 
d="M2363 1044q0 -200 -107 -316q-113 -122 -319 -122q-201 0 -310 115q-107 112 -107 309q0 205 113 315.5t315 110.5q207 0 317 -122q98 -110 98 -290zM2333 236h-791v225h791v-225zM1372 0h-325l-517 883q-23 40 -65 123h-4q8 -79 8 -232v-774h-305v1434h348l492 -854
q27 -46 67 -121h4q-8 51 -8 196v779h305v-1434zM2095 1038q0 209 -151 209q-158 0 -158 -215t158 -215q151 0 151 221z" />
    <glyph glyph-name="estimated" unicode="&#x212e;" horiz-adv-x="1229" 
d="M317 530v-370q121 -121 295 -121q258 0 396 246l71 -43q-96 -140 -196 -204q-114 -73 -269 -73q-239 0 -384.5 162t-145.5 403q0 243 140 401q147 165 386 165q245 0 388 -163q132 -151 147 -403h-828zM911 901q-129 123 -303 123q-172 0 -293 -123v-297h596v297z" />
    <glyph glyph-name="oneeighth" unicode="&#x215b;" horiz-adv-x="1976" 
d="M1505 1434l-891 -1434h-243l891 1434h243zM676 584h-563v172h176v477l-191 -41v180l406 82v-698h172v-172zM1676 446q169 -61 169 -215q0 -113 -84 -180q-88 -70 -245 -70q-134 0 -218 64.5t-84 174.5q0 149 161 224q-135 63 -135 193q0 102 82.5 167.5t211.5 65.5
q135 0 215 -64q75 -62 75 -157q0 -136 -148 -203zM1534 717q-94 0 -94 -85q0 -64 93 -102q93 39 93 103q0 84 -92 84zM1524 359q-110 -44 -110 -129q0 -42 34 -69t82 -27q117 0 117 97q0 85 -123 128z" />
    <glyph glyph-name="threeeighths" unicode="&#x215c;" horiz-adv-x="1976" 
d="M1505 1434l-891 -1434h-243l891 1434h243zM1676 446q169 -61 169 -215q0 -113 -84 -180q-88 -70 -245 -70q-134 0 -218 64.5t-84 174.5q0 149 161 224q-135 63 -135 193q0 102 82.5 167.5t211.5 65.5q135 0 215 -64q75 -62 75 -157q0 -136 -148 -203zM1534 717
q-94 0 -94 -85q0 -64 93 -102q93 39 93 103q0 84 -92 84zM1524 359q-110 -44 -110 -129q0 -42 34 -69t82 -27q117 0 117 97q0 85 -123 128zM715 836q0 -123 -98 -198t-257 -75q-133 0 -229 53v181q106 -68 221 -68q150 0 150 102q0 103 -172 103h-117v166h113q149 0 149 96
q0 90 -119 90q-106 0 -198 -65v176q99 57 239 57q138 0 216 -64q73 -60 73 -157q0 -147 -143 -195v-4q172 -41 172 -198z" />
    <glyph glyph-name="fiveeighths" unicode="&#x215d;" horiz-adv-x="1976" 
d="M1505 1434l-891 -1434h-243l891 1434h243zM1676 446q169 -61 169 -215q0 -113 -84 -180q-88 -70 -245 -70q-134 0 -218 64.5t-84 174.5q0 149 161 224q-135 63 -135 193q0 102 82.5 167.5t211.5 65.5q135 0 215 -64q75 -62 75 -157q0 -136 -148 -203zM1534 717
q-94 0 -94 -85q0 -64 93 -102q93 39 93 103q0 84 -92 84zM1524 359q-110 -44 -110 -129q0 -42 34 -69t82 -27q117 0 117 97q0 85 -123 128zM353 563q-128 0 -219 39v183q101 -61 198 -61q149 0 149 120q0 115 -170 115q-57 0 -153 -12v489h497v-172h-314v-145q34 3 61 3
q141 0 219 -75q74 -71 74 -186q0 -127 -86 -209q-93 -89 -256 -89z" />
    <glyph glyph-name="seveneighths" unicode="&#x215e;" horiz-adv-x="1894" 
d="M1423 1434l-891 -1434h-243l891 1434h243zM1594 446q169 -61 169 -215q0 -113 -84 -180q-88 -70 -245 -70q-134 0 -218 64.5t-84 174.5q0 149 161 224q-135 63 -135 193q0 102 82.5 167.5t211.5 65.5q135 0 215 -64q75 -62 75 -157q0 -136 -148 -203zM1452 717
q-94 0 -94 -85q0 -64 93 -102q93 39 93 103q0 84 -92 84zM1442 359q-110 -44 -110 -129q0 -42 34 -69t82 -27q117 0 117 97q0 85 -123 128zM401 584h-222l306 678h-396v172h619v-98z" />
    <glyph glyph-name="H22073" unicode="&#x25a1;" horiz-adv-x="1237" 
d="M1090 944v-944h-945v944h945zM221 76h793v792h-793v-792z" />
    <glyph glyph-name="H18543" unicode="&#x25aa;" horiz-adv-x="725" 
d="M594 444h-463v463h463v-463z" />
    <glyph glyph-name="H18551" unicode="&#x25ab;" horiz-adv-x="725" 
d="M594 444h-463v463h463v-463zM207 831v-311h311v311h-311z" />
    <glyph glyph-name="H18533" unicode="&#x25cf;" horiz-adv-x="1237" 
d="M618 1018q112 0 216 -57q111 -62 165 -162q60 -109 60 -221q0 -181 -128 -311t-310 -130q-183 0 -313 128t-130 313q0 118 60 222t164 161t216 57z" />
    <glyph glyph-name="openbullet" unicode="&#x25e6;" horiz-adv-x="725" 
d="M362 928q105 0 178.5 -73t73.5 -177q0 -105 -73 -178.5t-179 -73.5q-104 0 -176.5 74t-72.5 178q0 103 73 176.5t176 73.5zM362 852q-72 0 -123 -51t-51 -123q0 -74 51 -125t126 -51q73 0 123.5 51.5t50.5 124.5q0 70 -50.5 122t-126.5 52z" />
    <glyph glyph-name="uniF004" unicode="&#xf004;" horiz-adv-x="1024" 
d="M692 1116l-168 -352h-194l90 352h272z" />
    <glyph glyph-name="uniF005" unicode="&#xf005;" horiz-adv-x="1303" 
d="M850 -111l-168 -352h-195l91 352h272z" />
    <glyph glyph-name="fivesuperior" unicode="&#x2075;" horiz-adv-x="827" 
d="M353 563q-128 0 -219 39v183q101 -61 198 -61q149 0 149 120q0 115 -170 115q-57 0 -153 -12v489h497v-172h-314v-145q34 3 61 3q141 0 219 -75q74 -71 74 -186q0 -127 -86 -209q-93 -89 -256 -89z" />
    <glyph glyph-name="sevensuperior" unicode="&#x2077;" horiz-adv-x="807" 
d="M401 584h-222l306 678h-396v172h619v-98z" />
    <glyph glyph-name="eightsuperior" unicode="&#x2078;" horiz-adv-x="827" 
d="M556 1028q169 -60 169 -215q0 -113 -84 -180q-88 -70 -246 -70q-133 0 -217 65t-84 175q0 148 161 223q-135 64 -135 193q0 103 82.5 168.5t211.5 65.5q135 0 215 -65q75 -61 75 -157q0 -135 -148 -203zM414 1300q-95 0 -95 -85q0 -64 93 -102q93 39 93 103q0 84 -91 84z
M404 941q-110 -44 -110 -129q0 -42 34 -68.5t82 -26.5q116 0 116 96q0 86 -122 128z" />
    </font>
</defs>
</svg>
